Статистика раздачи | Обновить пиров
Скачал: [ 1 ]
 
   
 
 

[Цитировать]

Java Course | Начальный курс Java (2017) PCRec [H.264/720p-LQ] - Автор (режиссер): Java Course
Жанр: Программирование, Java EE, Java SE
Описание:
Основная задача курса — дать необходимые знания по основным технологиям Java SE и Java EE. Этих знаний, по нашему мнению, должно вполне хватить, чтобы устроиться на работу на должность Junior.
На занятиях на конкретных примерах рассматриваются различные прикладные пакеты и технологии, а также приемы работы с ними. В процессе обучения слушатель получает задание, которое выполняет самостоятельно и потом результат проверяется преподавателем.
Продолжительность: 60:53:40
Качество видео: PCRec
Видео: AVC/H.264, 1280x720, ~46-490 Kbps
Аудио: AAC, 2 ch, 61-131 Kbps

Mediainfo:

Общее
Полное имя : \[java-course] Начальный курс Java\1 Урок\1.mp4
Формат : MPEG-4
Профиль формата : Base Media
Идентификатор кодека : isom (isom/iso2/avc1/mp41)
Размер файла : 73,4 Мбайт
Продолжительность : 1 ч. 32 м.
Режим общего битрейта : Переменный
Общий поток : 111 Кбит/сек
Программа кодирования : Lavf54.25.104
Видео
Идентификатор : 1
Формат : AVC
Формат/Информация : Advanced Video Codec
Профиль формата : [email protected]
Параметр CABAC формата : Да
Параметр RefFrames формата : 4 кадра
Идентификатор кодека : avc1
Идентификатор кодека/Информация : Advanced Video Coding
Продолжительность : 1 ч. 32 м.
Битрейт : 46,4 Кбит/сек
Ширина : 1280 пикселей
Высота : 720 пикселей
Соотношение сторон : 16:9
Режим частоты кадров : Постоянный
Частота кадров : 8,000 кадров/сек
Цветовое пространство : YUV
Субдискретизация насыщенности : 4:2:0
Битовая глубина : 8 бит
Тип развёртки : Прогрессивная
Бит/(Пиксели*Кадры) : 0.006
Размер потока : 30,8 Мбайт (42%)
Библиотека кодирования : x264 core 125 r2208 d9d2288
Настройки программы : cabac=1 / ref=3 / deblock=1:0:0 / analyse=0x3:0x113 / me=hex / subme=7 / psy=1 / psy_rd=1.00:0.00 / mixed_ref=1 / me_range=16 / chroma_me=1 / trellis=1 / 8x8dct=1 / cqm=0 / deadzone=21,11 / fast_pskip=1 / chroma_qp_offset=-2 / threads=12 / lookahead_threads=2 / sliced_threads=0 / nr=0 / decimate=1 / interlaced=0 / bluray_compat=0 / constrained_intra=0 / bframes=3 / b_pyramid=2 / b_adapt=1 / b_bias=0 / direct=1 / weightb=1 / open_gop=0 / weightp=2 / keyint=250 / keyint_min=8 / scenecut=40 / intra_refresh=0 / rc_lookahead=40 / rc=crf / mbtree=1 / crf=23.0 / qcomp=0.60 / qpmin=0 / qpmax=69 / qpstep=4 / ip_ratio=1.40 / aq=1:1.00
Аудио
Идентификатор : 2
Формат : AAC
Формат/Информация : Advanced Audio Codec
Профиль формата : LC
Идентификатор кодека : 40
Продолжительность : 1 ч. 32 м.
Вид битрейта : Переменный
Битрейт : 61,4 Кбит/сек
Максимальный битрейт : 63,4 Кбит/сек
Каналы : 2 канала
Channel(s)_Original : 1 канал
Расположение каналов : Front: C
Частота : 48,0 КГц
Частота кадров : 46,875 кадров/сек (1024 SPF)
Метод сжатия : С потерями
Размер потока : 40,6 Мбайт (55%)
Default : Да
AlternateGroup/String : 1

Программа обучения:

  • Общие приниципы построения и работы программ. Компилятор javac, java-машина. Основы работы с IDE IntelliJ IDEA. Основы работы с IDE NetBeans. Основы работы с IDE Eclipse. Первая программа HelloWorld — 4 часа
  • Элементарные типы данных. Что такое Объектно-ориентированный язык (ООЯ). Классы и объекты — 4 часа
  • Основные конструкции для управления ходом программы: операторы, условия, циклы, выбор — 4 часа
  • Массивы — сложные структуры хранения данных. Примеры работы с массивами — 4 часа
  • Абстрактные классы. Интерфейсы — 4 часа
  • Исключения. Что это такое. Работа с исключениями. Классы Object, String, Date — 4 часа
  • Практические занятия по закреплению конструкций, массивов, классов — 4 часа
  • Понятие Reflection. Аннотации — 2 часа
  • Система ввода/вывода — 6 часов
  • Потоки (threads). Работа с потоками. Синхронизация — 4 часа
  • Внешние библиотеки. Примеры подключения — 2 часа
  • Программирование запросов по сети. TCP/IP. Примеры использования сокетов. Практическая работа — 6 часов
  • Generics. Коллекции. Практическая работа — 4 часа
  • Базы данных. Теория. Основы реляционных баз данных — 4 часа
  • SQL — основные команды. Практические занятия — 4 часа
  • Что такое JDBC. Работа с базами данных из Java. Практические занятия — 4 часа
  • Основы WEB. Web-сервер Tomcat. Протокол HTTP. Язык HTML. Практические занятия — 2 часа
  • XML — язык структурирования данных — 2 часа
  • Создание Web-приложения в NetBeans. Инсталляция приложения под Tomcat. Основы сервлетов — 4 часа
  • Создание сервлетов. Основные фазы. Основные интерфейсы. Фильтры — 4 часа
  • Что такое JSP (Java Server Pages). Подключение custom tag. Основы JSTL — 4 часа

Дополнительная информация:

В раздаче имеются архивы! В них содержится исходники примеров.
Скриншоты:


Показать сообщения:    

Текущее время: 18-Фев 06:21

Часовой пояс: UTC + 3


Вы не можете начинать темы
Вы не можете отвечать на сообщения
Вы не можете редактировать свои сообщения
Вы не можете удалять свои сообщения
Вы не можете голосовать в опросах
Вы не можете прикреплять файлы к сообщениям
Вы не можете скачивать файлы

!ВНИМАНИЕ!
Сайт не предоставляет электронные версии произведений, а занимается лишь коллекционированием и каталогизацией ссылок, присылаемых и публикуемых на форуме нашими читателями. Если вы являетесь правообладателем какого-либо представленного материала и не желаете, чтобы ссылка на него находилась в нашем каталоге, свяжитесь с нами, и мы незамедлительно удалим ее. Файлы для обмена на трекере предоставлены пользователями сайта, и администрация не несет ответственности за их содержание. Просьба не заливать файлы, защищенные авторскими правами, а также файлы нелегального содержания!