۩ ‼ Вы находитесь на Бесплатном торрент-трекере TORRNADA.com ۩ Зарегистрируйтесь для получения полного доступа ко всем функциям сайта ! ۩ После регистрации подпишитесь на нашу рассылку в своём профиле ۩
Auto Web Pinger

 

[Цитировать]

-Def Leppard - The Story So Far The Best Of (2CD)--
Год издания: 2018
Страна: Uk
Жанр: Hard Rock, Glam Metal
Продолжительность: 02:34:25-Лейбл издания: Universal Music Co., Mercury Records, Bludgeon Riffola
Страна-выпуска диска: Japan
Номер по каталогу: UICY-15798-9-Формат: FLAC
Битрейт аудио: Lossless
Тип рипа: image +.cue
Наличие сканов в содержимом раздачи: да
-

Трэклист

CD 1 | 01:19:36


01. Animal (4:06)
02. Photograph (4:09)
03. Pour Some Sugar On Me (4:28)
04. Love Bites (5:47)
05. Let's Get Rocked (4:56)
06. Armageddon It (5:23)
07. Foolin' (4:36)
08. Two Steps Behind (4:18)
09. Heaven Is (3:35)
10. Rocket (6:37)
11. Hysteria (5:55)
12. Have You Ever Needed Someone So Bad (5:24)
13. Make Love Like A Man (4:17)
14. Action (3:42)
15. When Love & Hate Collide (4:18)
16. Rock Of Ages (4:10)
17. Personal Jesus (3:55)

CD 2 | 01:14:49


01. Let's Go (5:04)
02. Promises (4:00)
03. Slang (2:38)
04. Bringin' On The Heartbreak (4:32)
05. Rock On (2:37)
06. Nine Lives (3:33)
07. Work It Out (4:50)
08. Stand Up (Kick Love Into Motion) (4:34)
09. Dangerous (3:29)
10. Now (4:00)
11. Undefeated (4:40)
12. Tonight (4:03)
13. C'Mon C'Mon (4:10)
14. Man Enough (3:56)
15. No Matter What (2:51)
16. All I Want Is Everything (5:21)
17. It's All About Believin' (4:19)
18. Kings Of The World (6:12)
-

Лог создания рипа

CD 1

Exact Audio Copy V1.1 from 23. June 2015
EAC extraction logfile from 15. December 2018, 8:04
Def Leppard / The Story So Far The Best Of CD1
Used drive  : TSSTcorpDVDWBD SH-B123L   Adapter: 0  ID: 4
Read mode               : Secure
Utilize accurate stream : Yes
Defeat audio cache      : Yes
Make use of C2 pointers : No
Read offset correction                      : 6
Overread into Lead-In and Lead-Out          : No
Fill up missing offset samples with silence : Yes
Delete leading and trailing silent blocks   : No
Null samples used in CRC calculations       : Yes
Used interface                              : Installed external ASPI interface
Used output format              : User Defined Encoder
Selected bitrate                : 768 kBit/s
Quality                         : High
Add ID3 tag                     : No
Command line compressor         : C:\Program Files (x86)\Exact Audio Copy\FLAC\FLAC.EXE
Additional command line options : -6 -V -T "ARTIST=%artist%" -T "TITLE=%title%" -T "ALBUM=%albumtitle%" -T "DATE=%year%" -T "TRACKNUMBER=%tracknr%" -T "GENRE=%genre%" -T "COMMENT=%comment%" -T "BAND=%albuminterpret%" -T "ALBUMARTIST=%albuminterpret%" -T "COMPOSER=%composer%" %haslyrics%--tag-from-file=LYRICS="%lyricsfile%"%haslyrics% -T "DISCNUMBER=%cdnumber%" -T "TOTALDISCS=%totalcds%" -T "TOTALTRACKS=%numtracks%" %hascover%--picture="%coverfile%"%hascover% %source% -o %dest%
TOC of the extracted CD
     Track |   Start  |  Length  | Start sector | End sector
    ---------------------------------------------------------
        1  |  0:00.00 |  4:05.74 |         0    |    18448
        2  |  4:05.74 |  4:09.20 |     18449    |    37143
        3  |  8:15.19 |  4:28.22 |     37144    |    57265
        4  | 12:43.41 |  5:47.20 |     57266    |    83310
        5  | 18:30.61 |  4:56.31 |     83311    |   105541
        6  | 23:27.17 |  5:22.50 |    105542    |   129741
        7  | 28:49.67 |  4:36.20 |    129742    |   150461
        8  | 33:26.12 |  4:18.21 |    150462    |   169832
        9  | 37:44.33 |  3:35.02 |    169833    |   185959
       10  | 41:19.35 |  6:36.61 |    185960    |   215720
       11  | 47:56.21 |  5:55.30 |    215721    |   242375
       12  | 53:51.51 |  5:23.65 |    242376    |   266665
       13  | 59:15.41 |  4:17.00 |    266666    |   285940
       14  | 63:32.41 |  3:41.55 |    285941    |   302570
       15  | 67:14.21 |  4:17.51 |    302571    |   321896
       16  | 71:31.72 |  4:09.47 |    321897    |   340618
       17  | 75:41.44 |  3:54.48 |    340619    |   358216
Range status and errors
Selected range
     Filename E:\MUSIC\Def Leppard - The Story So Far The Best Of CD1.wav
     Peak level 97.0 %
     Extraction speed 4.0 X
     Range quality 100.0 %
     Test CRC EA545699
     Copy CRC EA545699
     Copy OK
No errors occurred
AccurateRip summary
Track  1  not present in database
Track  2  not present in database
Track  3  not present in database
Track  4  not present in database
Track  5  not present in database
Track  6  not present in database
Track  7  not present in database
Track  8  not present in database
Track  9  not present in database
Track 10  not present in database
Track 11  not present in database
Track 12  not present in database
Track 13  not present in database
Track 14  not present in database
Track 15  not present in database
Track 16  not present in database
Track 17  not present in database
None of the tracks are present in the AccurateRip database
End of status report

CD 2

Exact Audio Copy V1.1 from 23. June 2015
EAC extraction logfile from 15. December 2018, 8:34
Def Leppard / The Story So Far The Best Of CD2
Used drive  : TSSTcorpDVDWBD SH-B123L   Adapter: 0  ID: 4
Read mode               : Secure
Utilize accurate stream : Yes
Defeat audio cache      : Yes
Make use of C2 pointers : No
Read offset correction                      : 6
Overread into Lead-In and Lead-Out          : No
Fill up missing offset samples with silence : Yes
Delete leading and trailing silent blocks   : No
Null samples used in CRC calculations       : Yes
Used interface                              : Installed external ASPI interface
Used output format              : User Defined Encoder
Selected bitrate                : 768 kBit/s
Quality                         : High
Add ID3 tag                     : No
Command line compressor         : C:\Program Files (x86)\Exact Audio Copy\FLAC\FLAC.EXE
Additional command line options : -6 -V -T "ARTIST=%artist%" -T "TITLE=%title%" -T "ALBUM=%albumtitle%" -T "DATE=%year%" -T "TRACKNUMBER=%tracknr%" -T "GENRE=%genre%" -T "COMMENT=%comment%" -T "BAND=%albuminterpret%" -T "ALBUMARTIST=%albuminterpret%" -T "COMPOSER=%composer%" %haslyrics%--tag-from-file=LYRICS="%lyricsfile%"%haslyrics% -T "DISCNUMBER=%cdnumber%" -T "TOTALDISCS=%totalcds%" -T "TOTALTRACKS=%numtracks%" %hascover%--picture="%coverfile%"%hascover% %source% -o %dest%
TOC of the extracted CD
     Track |   Start  |  Length  | Start sector | End sector
    ---------------------------------------------------------
        1  |  0:00.00 |  5:03.64 |         0    |    22788
        2  |  5:03.64 |  3:59.59 |     22789    |    40772
        3  |  9:03.48 |  2:38.34 |     40773    |    52656
        4  | 11:42.07 |  4:32.06 |     52657    |    73062
        5  | 16:14.13 |  2:36.63 |     73063    |    84825
        6  | 18:51.01 |  3:32.67 |     84826    |   100792
        7  | 22:23.68 |  4:49.50 |    100793    |   122517
        8  | 27:13.43 |  4:33.72 |    122518    |   143064
        9  | 31:47.40 |  3:28.59 |    143065    |   158723
       10  | 35:16.24 |  3:59.69 |    158724    |   176717
       11  | 39:16.18 |  4:39.70 |    176718    |   197712
       12  | 43:56.13 |  4:03.25 |    197713    |   215962
       13  | 47:59.38 |  4:10.35 |    215963    |   234747
       14  | 52:09.73 |  3:55.58 |    234748    |   252430
       15  | 56:05.56 |  2:50.68 |    252431    |   265248
       16  | 58:56.49 |  5:21.09 |    265249    |   289332
       17  | 64:17.58 |  4:18.74 |    289333    |   308756
       18  | 68:36.57 |  6:11.62 |    308757    |   336643
Range status and errors
Selected range
     Filename E:\MUSIC\Def Leppard - The Story So Far The Best Of CD2.wav
     Peak level 97.0 %
     Extraction speed 4.0 X
     Range quality 100.0 %
     Test CRC 387B4A03
     Copy CRC 387B4A03
     Copy OK
No errors occurred
AccurateRip summary
Track  1  not present in database
Track  2  not present in database
Track  3  not present in database
Track  4  not present in database
Track  5  not present in database
Track  6  not present in database
Track  7  not present in database
Track  8  not present in database
Track  9  not present in database
Track 10  not present in database
Track 11  not present in database
Track 12  not present in database
Track 13  not present in database
Track 14  not present in database
Track 15  not present in database
Track 16  not present in database
Track 17  not present in database
Track 18  not present in database
None of the tracks are present in the AccurateRip database
End of status report

Индексная карта (non-compilant .cue)

CD 1

REM GENRE "Hard Rock"
REM DATE 2018
REM DISCID F412A811
REM COMMENT "ExactAudioCopy v1.1"
PERFORMER "Def Leppard"
TITLE "The Story So Far The Best Of CD1"
FILE "Def Leppard - The Story So Far The Best Of CD1.flac" WAVE
  TRACK 01 AUDIO
    TITLE "Animal"
    PERFORMER "Def Leppard"
    INDEX 01 00:00:00
  TRACK 02 AUDIO
    TITLE "Photograph"
    PERFORMER "Def Leppard"
    INDEX 00 04:05:33
    INDEX 01 04:05:74
  TRACK 03 AUDIO
    TITLE "Pour Some Sugar On Me"
    PERFORMER "Def Leppard"
    INDEX 00 08:14:01
    INDEX 01 08:15:19
  TRACK 04 AUDIO
    TITLE "Love Bites"
    PERFORMER "Def Leppard"
    INDEX 00 12:42:59
    INDEX 01 12:43:41
  TRACK 05 AUDIO
    TITLE "Let's Get Rocked"
    PERFORMER "Def Leppard"
    INDEX 00 18:29:71
    INDEX 01 18:30:61
  TRACK 06 AUDIO
    TITLE "Armageddon It"
    PERFORMER "Def Leppard"
    INDEX 00 23:26:59
    INDEX 01 23:27:17
  TRACK 07 AUDIO
    TITLE "Foolin'"
    PERFORMER "Def Leppard"
    INDEX 00 28:48:65
    INDEX 01 28:49:67
  TRACK 08 AUDIO
    TITLE "Two Steps Behind"
    PERFORMER "Def Leppard"
    INDEX 00 33:24:06
    INDEX 01 33:26:12
  TRACK 09 AUDIO
    TITLE "Heaven Is"
    PERFORMER "Def Leppard"
    INDEX 00 37:42:49
    INDEX 01 37:44:33
  TRACK 10 AUDIO
    TITLE "Rocket"
    PERFORMER "Def Leppard"
    INDEX 00 41:18:24
    INDEX 01 41:19:35
  TRACK 11 AUDIO
    TITLE "Hysteria"
    PERFORMER "Def Leppard"
    INDEX 00 47:55:02
    INDEX 01 47:56:21
  TRACK 12 AUDIO
    TITLE "Have You Ever Needed Someone So Bad"
    PERFORMER "Def Leppard"
    INDEX 00 53:50:65
    INDEX 01 53:51:51
  TRACK 13 AUDIO
    TITLE "Make Love Like A Man"
    PERFORMER "Def Leppard"
    INDEX 01 59:15:41
  TRACK 14 AUDIO
    TITLE "Action"
    PERFORMER "Def Leppard"
    INDEX 00 63:31:14
    INDEX 01 63:32:41
  TRACK 15 AUDIO
    TITLE "When Love & Hate Collide"
    PERFORMER "Def Leppard"
    INDEX 00 67:13:07
    INDEX 01 67:14:21
  TRACK 16 AUDIO
    TITLE "Rock Of Ages"
    PERFORMER "Def Leppard"
    INDEX 00 71:31:11
    INDEX 01 71:31:72
  TRACK 17 AUDIO
    TITLE "Personal Jesus"
    PERFORMER "Def Leppard"
    INDEX 00 75:39:63
    INDEX 01 75:41:44

CD 2

REM GENRE "Hard Rock"
REM DATE 2018
REM DISCID 0A118812
REM COMMENT "ExactAudioCopy v1.1"
PERFORMER "Def Leppard"
TITLE "The Story So Far The Best Of CD2"
FILE "Def Leppard - The Story So Far The Best Of CD2.flac" WAVE
  TRACK 01 AUDIO
    TITLE "Let's Go  "
    PERFORMER "Def Leppard"
    INDEX 01 00:00:00
  TRACK 02 AUDIO
    TITLE "Promises  "
    PERFORMER "Def Leppard"
    INDEX 00 05:02:62
    INDEX 01 05:03:64
  TRACK 03 AUDIO
    TITLE "Slang  "
    PERFORMER "Def Leppard"
    INDEX 00 09:03:28
    INDEX 01 09:03:48
  TRACK 04 AUDIO
    TITLE "Bringin' On The Heartbreak  "
    PERFORMER "Def Leppard"
    INDEX 00 11:40:62
    INDEX 01 11:42:07
  TRACK 05 AUDIO
    TITLE "Rock On  "
    PERFORMER "Def Leppard"
    INDEX 00 16:13:09
    INDEX 01 16:14:13
  TRACK 06 AUDIO
    TITLE "Nine Lives  "
    PERFORMER "Def Leppard"
    INDEX 00 18:49:36
    INDEX 01 18:51:01
  TRACK 07 AUDIO
    TITLE "Work It Out  "
    PERFORMER "Def Leppard"
    INDEX 00 22:23:25
    INDEX 01 22:23:68
  TRACK 08 AUDIO
    TITLE "Stand Up (Kick Love Into Motion)  "
    PERFORMER "Def Leppard"
    INDEX 01 27:13:43
  TRACK 09 AUDIO
    TITLE "Dangerous  "
    PERFORMER "Def Leppard"
    INDEX 00 31:46:34
    INDEX 01 31:47:40
  TRACK 10 AUDIO
    TITLE "Now  "
    PERFORMER "Def Leppard"
    INDEX 00 35:14:20
    INDEX 01 35:16:24
  TRACK 11 AUDIO
    TITLE "Undefeated  "
    PERFORMER "Def Leppard"
    INDEX 00 39:15:00
    INDEX 01 39:16:18
  TRACK 12 AUDIO
    TITLE "Tonight  "
    PERFORMER "Def Leppard"
    INDEX 00 43:55:18
    INDEX 01 43:56:13
  TRACK 13 AUDIO
    TITLE "C'Mon C'Mon  "
    PERFORMER "Def Leppard"
    INDEX 01 47:59:38
  TRACK 14 AUDIO
    TITLE "Man Enough  "
    PERFORMER "Def Leppard"
    INDEX 00 52:08:52
    INDEX 01 52:09:73
  TRACK 15 AUDIO
    TITLE "No Matter What  "
    PERFORMER "Def Leppard"
    INDEX 00 56:04:30
    INDEX 01 56:05:56
  TRACK 16 AUDIO
    TITLE "All I Want Is Everything  "
    PERFORMER "Def Leppard"
    INDEX 01 58:56:49
  TRACK 17 AUDIO
    TITLE "It's All About Believin'  "
    PERFORMER "Def Leppard"
    INDEX 00 64:16:55
    INDEX 01 64:17:58
  TRACK 18 AUDIO
    TITLE "Kings Of The World"
    PERFORMER "Def Leppard"
    INDEX 00 68:36:09
    INDEX 01 68:36:57
- --


Показать сообщения:    

Текущее время: 19-Мар 08:42

Часовой пояс: UTC + 3


Вы не можете начинать темы
Вы не можете отвечать на сообщения
Вы не можете редактировать свои сообщения
Вы не можете удалять свои сообщения
Вы не можете голосовать в опросах
Вы не можете прикреплять файлы к сообщениям
Вы не можете скачивать файлы

!ВНИМАНИЕ!
Сайт не предоставляет электронные версии произведений, а занимается лишь коллекционированием и каталогизацией ссылок, присылаемых и публикуемых на форуме нашими читателями. Если вы являетесь правообладателем какого-либо представленного материала и не желаете, чтобы ссылка на него находилась в нашем каталоге, свяжитесь с нами, и мы незамедлительно удалим ее. Файлы для обмена на трекере предоставлены пользователями сайта, и администрация не несет ответственности за их содержание. Просьба не заливать файлы, защищенные авторскими правами, а также файлы нелегального содержания!