۩ ‼ Вы находитесь на Бесплатном торрент-трекере TORRNADA.com ۩ Зарегистрируйтесь для получения полного доступа ко всем функциям сайта ! ۩ После регистрации подпишитесь на нашу рассылку в своём профиле ۩
Auto Web Pinger

 

[Цитировать]

-«Мультфильмы студии "Мельница" и "СТВ"»- - Страна: Россия
Выпущено: кинокомпания "СТВ", анимационная студия "Мельница"
Режиссер: Илья Максимов, Константин Бронзит, Владимир Торопчин, Людмила Стеблянко, Сергей Глезин, Федор Дмитриев, Дарина Шмидт, Георгий Данелия, Татьяна Ильина, Георгий Гитис, Вячеслав Плотников, Максим Волков, Андрей Галат, Владлен Барбэ, Виталий Мухаметзянов
Жанр: приключения, фэнтези, мюзикл
Год: 2003-2017- Описание:
Собрание полнометражных мультфильмов от Российской анимационной студии "Мельница" и кинокомпании "СТВ". В данном сборнике Вы увидите такие интересные мультипликационные фильмы как: «Карлик Нос», «Про Федота-стрельца, удалого молодца», «Как поймать перо Жар-Птицы», трилогию «Иван Царевич и Серый Волк», где героев русских народных сказок ждут новые приключения, опасности и забавные ситуации, приключения героев былин - трёх богатырей: Алёши Поповича, Добрыни Никитича и Ильи Муромца, и другие мультфильмы. Для вашей домашней видео-коллекции!
- Продолжительность: 01:18:55 / 01:18:46 / 01:08:08 / 01:19:31 / 01:13:40 / 01:16:32 / 01:25:58 / 01:36:27 / 01:11:18 / 01:12:38 / 01:08:41 / 01:14:43 / 01:16:53 / 01:24:47 / 01:17:31 / 01:17:07 / 01:13:37 / 01:27:22 / 01:27:22 / 01:11:46
Качество: DVDRip, WEB-DLRip, HDRip, BDRip
Формат: AVI
Видео: Xvid, 720x432 - 704x384, ~2398 - 1572 Kbps
Аудио: Dolby AC3, 48.0 kHz, 6 ch, 448 - 384 Kbps
-

Содержание:

2003 «Карлик Нос»

Карлик Нос (2003) DVDRip- Производство: Россия
Жанр: фэнтези, музыкальный
Режиссер: Илья Максимов
Описание:
Для того, чтобы осуществить свои коварные планы, злой колдунье нужен ребёнок с очень добрым сердцем. Обманом она заманивает к себе маленького Якоба — сына сапожника и зеленщицы. Когда Якоб отказывается участвовать в её сомнительных делах, ведьма превращает его в уродливого карлика. Но вечная сила любви и дружбы помогает героям сказки рассеять злые чары…

Возраст: 6+ (зрителям, достигшим 6 лет)
Продолжительность: 01:18:55
Качество видео: DVDRip
Субтитры: Отсутствуют
Видео: Xvid, 720x432 (5:3), ~2186 Kbps (0.281 bit/pixel)
Аудио: Dolby AC3, 48.0 kHz, 6 ch, 448 Kbps

Mediainfo:

General
Полное имя : Карлик Нос (2003) DVDRip.avi
Формат : AVI
Формат/Информация : Audio Video Interleave
Размер файла : 1.46 GiB
Продолжительность : 1 h 18 min
Общий поток : 2 644 kb/s
Программа кодирования : VirtualDubMod 1.5.10.3 | www.virtualdub-fr.org || (build 2550/release)
Библиотека кодирования : VirtualDubMod build 2550/release
Video
Идентификатор : 0
Формат : MPEG-4 Visual
Профиль формата : Advanced Simple@L5
Настройки формата : BVOP1 / Custom Matrix
Параметр BVOP формата : 1
Параметр QPel формата : No
Параметр GMC формата : No warppoints
Параметр матрицы формата : Custom
Идентификатор кодека : XVID
Идентификатор кодека/Подсказка : XviD
Продолжительность : 1 h 18 min
Битрейт : 2 186 kb/s
Ширина : 720 pixels
Высота : 432 pixels
Соотношение сторон : 5:3
Частота кадров : 25.000 FPS
Цветовое пространство : YUV
Субдискретизация насыщенности : 4:2:0
Битовая глубина : 8 bits
Тип развёртки : Progressive
Метод сжатия : Lossy
Бит/(Пиксели*Кадры) : 0.281
Размер потока : 1.20 GiB (83%)
Библиотека кодирования : XviD 65
Audio
Идентификатор : 1
Формат : AC-3
Формат/Информация : Audio Coding 3
Коммерческое название : Dolby Digital
Идентификатор кодека : 2000
Продолжительность : 1 h 18 min
Вид битрейта : Constant
Битрейт : 448 kb/s
Каналы : 6 channels
Channel layout : L R C LFE Ls Rs
Частота : 48.0 kHz
Частота кадров : 31.250 FPS (1536 SPF)
Битовая глубина : 16 bits
Метод сжатия : Lossy
Размер потока : 253 MiB (17%)
Выравнивание : Split accross interleaves
Продолжительность промежутка : 40 ms (1.00 video frame)
Время предзагрузки промежутка : 500 ms
ServiceKind/String : Complete Main
Скриншоты:

2004 «Алёша Попович и Тугарин Змей»

Алёша Попович и Тугарин Змей (2004) BDRip- Производство: Россия
Жанр: мультфильм, комедия, приключения, мюзикл, фэнтези, мелодрама
Режиссер: Константин Бронзит
Описание: Когда подступила к Ростову вражеская орда о главе с Тугариным Змием, Алеша Попович не сумел уберечь жителей от выплаты дани. Теперь богатырь должен восстановить доброе имя, вернуть золото и прогнать неприятеля с земли русской. Он отправляется в путешествие, а помогут ему в этом дядька Тихон, девушка Любава, ее бабушка и говорящий конь Юлий.

Возраст: 12+ (зрителям, достигшим 12 лет)
Продолжительность: 01:18:46
Качество видео: BDRip
Субтитры: Отсутствуют
Видео: Xvid, 704x384 (1.85:1), ~2186 Kbps (0.337 bit/pixel)
Аудио: Dolby AC3, 48.0 kHz, 6 ch, 448 Kbps

Mediainfo:

Общее
Полное имя : Алёша Попович и Тугарин Змей (2004) BDRip.avi
Формат : AVI
Формат/Информация : Audio Video Interleave
Размер файла : 1,45 Гбайт
Продолжительность : 1 ч. 18 м.
Общий поток : 2643 Кбит/сек
Название фильма : Алеша Попович и Тугарин Змей (2004)
Режиссёр : MECHANICAL ENGINEER (BD-Remux)
Программа кодирования : VirtualDubMod 1.5.10.3 | www.virtualdub-fr.org || (build 2550/release)
Авторское право : HQ-ViDEO (www.hq-video.org)
Примечание : 01.12.2011
Видео
Идентификатор : 0
Формат : MPEG-4 Visual
Профиль формата : Advanced Simple@L5
Настройки формата : BVOP1 / Custom Matrix
Параметр BVOP формата : 1
Параметр QPel формата : Нет
Параметр GMC формата : Без точки перехода
Параметр матрицы формата : Выборочная
Идентификатор кодека : XVID
Идентификатор кодека/Подсказка : XviD
Продолжительность : 1 ч. 18 м.
Битрейт : 2186 Кбит/сек
Ширина : 704 пикселя
Высота : 384 пикселя
Соотношение сторон : 1,85:1
Частота кадров : 23,976 (24000/1001) кадра/сек
Цветовое пространство : YUV
Субдискретизация насыщенности : 4:2:0
Битовая глубина : 8 бит
Тип развёртки : Прогрессивная
Метод сжатия : С потерями
Бит/(Пиксели*Кадры) : 0.337
Размер потока : 1,20 Гбайт (83%)
Библиотека кодирования : XviD 64
Аудио
Идентификатор : 1
Формат : AC-3
Формат/Информация : Audio Coding 3
Коммерческое название : Dolby Digital
Идентификатор кодека : 2000
Продолжительность : 1 ч. 18 м.
Вид битрейта : Постоянный
Битрейт : 448 Кбит/сек
Каналы : 6 каналов
Channel layout : L R C LFE Ls Rs
Частота : 48,0 КГц
Частота кадров : 31,250 кадров/сек (1536 SPF)
Битовая глубина : 16 бит
Метод сжатия : С потерями
Размер потока : 252 Мбайт (17%)
Выравнивание : Разделение по промежуткам
Продолжительность промежутка : 42 мс. (1,00 видеокадр)
Время предзагрузки промежутка : 500 мс.
ServiceKind/String : Complete Main
Скриншоты:

2006 «Добрыня Никитич и Змей Горыныч»

Добрыня Никитич и Змей Горыныч (2006) BDRip- Производство: Россия
Жанр: мультфильм, фэнтези, комедия, приключения
Режиссер: Илья Максимов
Описание: Пока храбрый воин Добрыня Никитич собирал с тугар дань, в Киеве похитили любимую племянницу князя — Забаву Путятичну. Вопреки воле князя, Добрыня с женихом Забавы Елисеем отправляется на ее поиски. В пути их ждет много приключений…

Возраст: 0+ (для любой зрительской аудитории)
Продолжительность: 01:08:08
Качество видео: BDRip
Субтитры: Отсутствуют
Видео: Xvid, 704x384 (1:85:1), ~1915 Kbps (0.295 bit/pixel)
Аудио: Dolby AC3, 48.0 kHz, 6 ch, 384 Kbps

Mediainfo:

Общее
Полное имя : Добрыня Никитич и Змей Горыныч (2006) BDRip.avi
Формат : AVI
Формат/Информация : Audio Video Interleave
Размер файла : 1,10 Гбайт
Продолжительность : 1 ч. 8 м.
Общий поток : 2308 Кбит/сек
Название фильма : Добрыня Никитич и Змей Горыныч (2006)
Режиссёр : MECHANICAL ENGINEER (BD-Remux)
Программа кодирования : VirtualDubMod 1.5.10.3 | www.virtualdub-fr.org || (build 2550/release)
Авторское право : HQ-ViDEO (www.hq-video.org)
Примечание : 02.12.2012
Видео
Идентификатор : 0
Формат : MPEG-4 Visual
Профиль формата : Advanced Simple@L5
Настройки формата : BVOP1 / Custom Matrix
Параметр BVOP формата : 1
Параметр QPel формата : Нет
Параметр GMC формата : Без точки перехода
Параметр матрицы формата : Выборочная
Идентификатор кодека : XVID
Идентификатор кодека/Подсказка : XviD
Продолжительность : 1 ч. 8 м.
Битрейт : 1915 Кбит/сек
Ширина : 704 пикселя
Высота : 384 пикселя
Соотношение сторон : 1,85:1
Частота кадров : 23,976 (24000/1001) кадра/сек
Цветовое пространство : YUV
Субдискретизация насыщенности : 4:2:0
Битовая глубина : 8 бит
Тип развёртки : Прогрессивная
Метод сжатия : С потерями
Бит/(Пиксели*Кадры) : 0.295
Размер потока : 933 Мбайт (83%)
Библиотека кодирования : XviD 65
Аудио
Идентификатор : 1
Формат : AC-3
Формат/Информация : Audio Coding 3
Коммерческое название : Dolby Digital
Идентификатор кодека : 2000
Продолжительность : 1 ч. 8 м.
Вид битрейта : Постоянный
Битрейт : 384 Кбит/сек
Каналы : 6 каналов
Channel layout : L R C LFE Ls Rs
Частота : 48,0 КГц
Частота кадров : 31,250 кадров/сек (1536 SPF)
Битовая глубина : 16 бит
Метод сжатия : С потерями
Размер потока : 187 Мбайт (17%)
Выравнивание : Разделение по промежуткам
Продолжительность промежутка : 42 мс. (1,00 видеокадр)
Время предзагрузки промежутка : 500 мс.
ServiceKind/String : Complete Main
Скриншоты:

2007 «Илья Муромец и Соловей-Разбойник»

Илья Муромец и Соловей-Разбойник (2007) BDRip- Производство: Россия
Жанр: мультфильм, комедия, приключения
Режиссер: Владимир Торопчин
Описание: Славится земля русская богатырями богатырскими да разбойниками разбойничьими… А сверху всего князь княжеский сидит, за всем следит и порядок наводит, если нужно. Да только не всегда выходит у князя так, как нужно — правильно. Вот и сейчас — с богатырём поругался да от Соловья Разбойника урон потерпел немалый: увёл бандит окаянный казну государственную прямо из-под носа!
Что делать князю? А ничего особенного — на то он и князь, чтоб из любой ситуации выход найти! Вот и отправились князь с Ильёй на поиски похищенного, а за ними вслед увязалась корреспондентка летописи «Новая береста». А дорога непростая выдалась, до самого Царьграда довела, где встретил их Император Византийский, да только незадача вышла — повздорили наши герои с императором этим, и заключил он против Князя Киевского и Земель русских союз с Соловьем Разбойником…

Возраст: 12+ (зрителям, достигшим 12 лет)
Продолжительность: 01:19:31
Качество видео: BDRip
Субтитры: Отсутствуют
Видео: Xvid, 704x384 (1.85:1), ~2165 Kbps (0.334 bit/pixel)
Аудио: Dolby AC3, 48.0 kHz, 6 ch, 448 Kbps

Mediainfo:

Общее
Полное имя : Илья Муромец и Соловей-Разбойник (2007) BDRip.avi
Формат : AVI
Формат/Информация : Audio Video Interleave
Размер файла : 1,46 Гбайт
Продолжительность : 1 ч. 19 м.
Общий поток : 2622 Кбит/сек
Название фильма : Илья Муромец и Соловей Разбойник (2007)
Режиссёр : MECHANICAL ENGINEER (BD-Remux)
Программа кодирования : VirtualDubMod 1.5.10.3 | www.virtualdub-fr.org || (build 2550/release)
Авторское право : HQ-ViDEO (www.hq-video.org)
Примечание : 31.11.2011
Видео
Идентификатор : 0
Формат : MPEG-4 Visual
Профиль формата : Advanced Simple@L5
Настройки формата : BVOP1 / Custom Matrix
Параметр BVOP формата : 1
Параметр QPel формата : Нет
Параметр GMC формата : Без точки перехода
Параметр матрицы формата : Выборочная
Идентификатор кодека : XVID
Идентификатор кодека/Подсказка : XviD
Продолжительность : 1 ч. 19 м.
Битрейт : 2165 Кбит/сек
Ширина : 704 пикселя
Высота : 384 пикселя
Соотношение сторон : 1,85:1
Частота кадров : 23,976 (24000/1001) кадра/сек
Цветовое пространство : YUV
Субдискретизация насыщенности : 4:2:0
Битовая глубина : 8 бит
Тип развёртки : Прогрессивная
Метод сжатия : С потерями
Бит/(Пиксели*Кадры) : 0.334
Размер потока : 1,20 Гбайт (83%)
Библиотека кодирования : XviD 64
Аудио
Идентификатор : 1
Формат : AC-3
Формат/Информация : Audio Coding 3
Коммерческое название : Dolby Digital
Идентификатор кодека : 2000
Продолжительность : 1 ч. 19 м.
Вид битрейта : Постоянный
Битрейт : 448 Кбит/сек
Каналы : 6 каналов
Channel layout : L R C LFE Ls Rs
Частота : 48,0 КГц
Частота кадров : 31,250 кадров/сек (1536 SPF)
Битовая глубина : 16 бит
Метод сжатия : С потерями
Размер потока : 255 Мбайт (17%)
Выравнивание : Разделение по промежуткам
Продолжительность промежутка : 42 мс. (1,00 видеокадр)
Время предзагрузки промежутка : 500 мс.
ServiceKind/String : Complete Main
Скриншоты:

2008 «Про Федота-стрельца, удалого молодца»

Про Федота-стрельца, удалого молодца (2008) DVDRip- Производство: Россия
Жанр: мультфильм, фэнтези, приключения, семейный
Режиссер: Людмила Стеблянко
Описание: Федот — обычный крестьянин, у которого есть красивая и услужливая жена Маруся. Царю очень понравилась Маруся. Но на его пути стоит Федот. Чтобы убрать Федота, царь загадывает ему загадки. Они становятся все сложнее и сложнее, а на кону — жизнь героя.

Возраст: 12+ (зрителям, достигшим 12 лет)
Продолжительность: 01:13:40
Качество видео: DVDRip
Субтитры: Отсутствуют
Видео: Xvid, 720x304 (2.35:1), ~2373 Kbps (0.434 bit/pixel)
Аудио: Dolby AC3, 48.0 kHz, 6 ch, 448 Kbps

Mediainfo:

Общее
Полное имя : Про Федота-стрельца, удалого молодца (2008) DVDRip.avi
Формат : AVI
Формат/Информация : Audio Video Interleave
Размер файла : 1,46 Гбайт
Продолжительность : 1 ч. 13 м.
Общий поток : 2830 Кбит/сек
Программа кодирования : VirtualDubMod 1.5.10.3 | www.virtualdub-fr.org || (build 2550/release)
Библиотека кодирования : VirtualDubMod build 2550/release
Видео
Идентификатор : 0
Формат : MPEG-4 Visual
Профиль формата : Advanced Simple@L5
Настройки формата : BVOP1 / Custom Matrix
Параметр BVOP формата : 1
Параметр QPel формата : Нет
Параметр GMC формата : Без точки перехода
Параметр матрицы формата : Выборочная
Идентификатор кодека : XVID
Идентификатор кодека/Подсказка : XviD
Продолжительность : 1 ч. 13 м.
Битрейт : 2373 Кбит/сек
Ширина : 720 пикселей
Высота : 304 пикселя
Соотношение сторон : 2,35:1
Частота кадров : 25,000 кадров/сек
Цветовое пространство : YUV
Субдискретизация насыщенности : 4:2:0
Битовая глубина : 8 бит
Тип развёртки : Прогрессивная
Метод сжатия : С потерями
Бит/(Пиксели*Кадры) : 0.434
Размер потока : 1,22 Гбайт (84%)
Библиотека кодирования : XviD 65
Аудио
Идентификатор : 1
Формат : AC-3
Формат/Информация : Audio Coding 3
Коммерческое название : Dolby Digital
Идентификатор кодека : 2000
Продолжительность : 1 ч. 13 м.
Вид битрейта : Постоянный
Битрейт : 448 Кбит/сек
Каналы : 6 каналов
Channel layout : L R C LFE Ls Rs
Частота : 48,0 КГц
Частота кадров : 31,250 кадров/сек (1536 SPF)
Битовая глубина : 16 бит
Метод сжатия : С потерями
Размер потока : 236 Мбайт (16%)
Выравнивание : Разделение по промежуткам
Продолжительность промежутка : 40 мс. (1,00 видеокадр)
Время предзагрузки промежутка : 500 мс.
ServiceKind/String : Complete Main
Скриншоты:

2010 «Три богатыря и Шамаханская царица»

Три богатыря и Шамаханская царица (2010) BDRip- Производство: Россия
Жанр: мультфильм, фэнтези, комедия, приключения, семейный
Режиссер: Сергей Глезин
Описание: Легендарная Шамаханская царица, которая сводила с ума многих царей и простых смертных, положила свой глаз и на Киевского князя. Тот заболел любовью странной по ней. Но чтобы доставить в целости и сохранности эту чудо-богиню в Киев-Град, срочно из отпуска вызывают всех троих, уже знакомых нам, богатырей: Алёшу Поповича, Добрыню Никитича и Илью Муромца. Теперь троица должна решить, как быть дальше? Вроде бы и слухи о царице ходят нелестные, и князя жаль.

Возраст: 12+ (зрителям, достигшим 12 лет)
Продолжительность: 01:16:32
Качество видео: BDRip
Субтитры: Отсутствуют
Видео: Xvid, 704x400 (16:9), ~2267 Kbps (0.335 bit/pixel)
Аудио: Dolby AC3, 48.0 kHz, 6 ch, 448 Kbps

Mediainfo:

Общее
Полное имя : Три богатыря и Шамаханская царица (2010) BDRip.avi
Формат : AVI
Формат/Информация : Audio Video Interleave
Размер файла : 1,46 Гбайт
Продолжительность : 1 ч. 16 м.
Общий поток : 2725 Кбит/сек
Название фильма : Три богатыря и Шамаханская царица (2010)
Режиссёр : MECHANICAL ENGINEER (BD-Remux)
Программа кодирования : VirtualDubMod 1.5.10.3 | www.virtualdub-fr.org || (build 2550/release)
Авторское право : HQ-ViDEO (www.hq-video.org)
Примечание : 03.12.2011
Видео
Идентификатор : 0
Формат : MPEG-4 Visual
Профиль формата : Advanced Simple@L5
Настройки формата : BVOP1 / Custom Matrix
Параметр BVOP формата : 1
Параметр QPel формата : Нет
Параметр GMC формата : Без точки перехода
Параметр матрицы формата : Выборочная
Идентификатор кодека : XVID
Идентификатор кодека/Подсказка : XviD
Продолжительность : 1 ч. 16 м.
Битрейт : 2267 Кбит/сек
Ширина : 704 пикселя
Высота : 400 пикселей
Соотношение сторон : 16:9
Частота кадров : 24,000 кадра/сек
Цветовое пространство : YUV
Субдискретизация насыщенности : 4:2:0
Битовая глубина : 8 бит
Тип развёртки : Прогрессивная
Метод сжатия : С потерями
Бит/(Пиксели*Кадры) : 0.335
Размер потока : 1,21 Гбайт (83%)
Библиотека кодирования : XviD 64
Аудио
Идентификатор : 1
Формат : AC-3
Формат/Информация : Audio Coding 3
Коммерческое название : Dolby Digital
Идентификатор кодека : 2000
Продолжительность : 1 ч. 16 м.
Вид битрейта : Постоянный
Битрейт : 448 Кбит/сек
Каналы : 6 каналов
Channel layout : L R C LFE Ls Rs
Частота : 48,0 КГц
Частота кадров : 31,250 кадров/сек (1536 SPF)
Битовая глубина : 16 бит
Метод сжатия : С потерями
Размер потока : 245 Мбайт (16%)
Выравнивание : Разделение по промежуткам
Продолжительность промежутка : 42 мс. (1,00 видеокадр)
Время предзагрузки промежутка : 500 мс.
ServiceKind/String : Complete Main
Скриншоты:

2011 «Иван Царевич и Серый Волк»

Иван Царевич и Серый Волк (2011) HDRip- Производство: Россия
Жанр: мультфильм, фэнтези, комедия, приключения, семейный
Режиссер: Владимир Торопчин
Описание: Увлекательная история от создателей богатырской трилогии, в которой героев русских народных сказок ждут новые приключения, опасности и забавные ситуации.

Возраст: 0+ (для любой зрительской аудитории)
Продолжительность: 01:25:58
Качество видео: HDRip
Субтитры: Отсутствуют
Видео: Xvid, 720x384 (1.85:1), ~2027 Kbps (0.306 bit/pixel)
Аудио: Dolby AC3, 48.0 kHz, 6 ch, 384 Kbps

Mediainfo:

Общее
Полное имя : Иван Царевич и Серый Волк (2011) HDRip.avi
Формат : AVI
Формат/Информация : Audio Video Interleave
Размер файла : 1,45 Гбайт
Продолжительность : 1 ч. 25 м.
Общий поток : 2420 Кбит/сек
Программа кодирования : VirtualDubModRus 1.5.10.2 (build 2540/release)
Библиотека кодирования : VirtualDubMod build 2540/release
Видео
Идентификатор : 0
Формат : MPEG-4 Visual
Профиль формата : Advanced Simple@L5
Настройки формата : BVOP1 / Custom Matrix
Параметр BVOP формата : 1
Параметр QPel формата : Нет
Параметр GMC формата : Без точки перехода
Параметр матрицы формата : Выборочная
Идентификатор кодека : XVID
Идентификатор кодека/Подсказка : XviD
Продолжительность : 1 ч. 25 м.
Битрейт : 2027 Кбит/сек
Ширина : 720 пикселей
Высота : 384 пикселя
Соотношение сторон : 1,85:1
Частота кадров : 23,976 (24000/1001) кадра/сек
Цветовое пространство : YUV
Субдискретизация насыщенности : 4:2:0
Битовая глубина : 8 бит
Тип развёртки : Прогрессивная
Метод сжатия : С потерями
Бит/(Пиксели*Кадры) : 0.306
Размер потока : 1,22 Гбайт (84%)
Библиотека кодирования : XviD 64
Аудио
Идентификатор : 1
Формат : AC-3
Формат/Информация : Audio Coding 3
Коммерческое название : Dolby Digital
Идентификатор кодека : 2000
Продолжительность : 1 ч. 25 м.
Вид битрейта : Постоянный
Битрейт : 384 Кбит/сек
Каналы : 6 каналов
Channel layout : L R C LFE Ls Rs
Частота : 48,0 КГц
Частота кадров : 31,250 кадров/сек (1536 SPF)
Битовая глубина : 16 бит
Метод сжатия : С потерями
Размер потока : 236 Мбайт (16%)
Выравнивание : Разделение по промежуткам
Продолжительность промежутка : 42 мс. (1,00 видеокадр)
Время предзагрузки промежутка : 500 мс.
ServiceKind/String : Complete Main
Скриншоты:

2013 «Ку! Кин-дза-дза»

Ку! Кин-дза-дза (2013) HDRip- Производство: Россия
Жанр: мультфильм, фантастика, комедия
Режиссер: Георгий Данелия, Татьяна Ильина
Описание: Начинающий диджей Толик и всемирно известный виолончелист Владимир Чижов встречают на шумной московской улице босого человека. Нажав на кнопку странной машинки, герои перемещаются на пустынную планету Плюк. Анимационный ремейк любимого всеми фильма «Кин-дза-дза!» не менее увлекательно и смешно, чем оригинал, рассказывает о приключениях Толика и дяди Вовы. В этом мире песка жители делятся на две категории — пацаков и чатлан, простая спичка обладает невероятной ценностью, а людей встречают и провожают по цвету штанов.

Возраст: 6+ (зрителям, достигшим 6 лет)
Продолжительность: 01:36:27
Качество видео: HDRip
Субтитры: Отсутствуют
Видео: Xvid, 720x400 (16:9), ~1572 Kbps (0.228 bit/pixel)
Аудио: Dolby AC3, 48.0 kHz, 6 ch, 448 Kbps

Mediainfo:

General
Полное имя : Ку! Кин-дза-дза (2013) HDRip.avi
Формат : AVI
Формат/Информация : Audio Video Interleave
Размер файла : 1.37 GiB
Продолжительность : 1 h 36 min
Общий поток : 2 029 kb/s
Программа кодирования : VirtualDubMod 1.5.10.2 (build 2540/release)
Библиотека кодирования : VirtualDubMod build 2540/release
Video
Идентификатор : 0
Формат : MPEG-4 Visual
Профиль формата : Advanced Simple@L5
Настройки формата : BVOP2
Параметр BVOP формата : 2
Параметр QPel формата : No
Параметр GMC формата : No warppoints
Параметр матрицы формата : Default (MPEG)
Идентификатор кодека : XVID
Идентификатор кодека/Подсказка : XviD
Продолжительность : 1 h 36 min
Битрейт : 1 572 kb/s
Ширина : 720 pixels
Высота : 400 pixels
Соотношение сторон : 16:9
Частота кадров : 23.976 (24000/1001) FPS
Цветовое пространство : YUV
Субдискретизация насыщенности : 4:2:0
Битовая глубина : 8 bits
Тип развёртки : Progressive
Метод сжатия : Lossy
Бит/(Пиксели*Кадры) : 0.228
Размер потока : 1.06 GiB (77%)
Библиотека кодирования : XviD 1.2.1 (UTC 2008-12-04)
Audio
Идентификатор : 1
Формат : AC-3
Формат/Информация : Audio Coding 3
Коммерческое название : Dolby Digital
Идентификатор кодека : 2000
Продолжительность : 1 h 36 min
Вид битрейта : Constant
Битрейт : 448 kb/s
Каналы : 6 channels
Channel layout : L R C LFE Ls Rs
Частота : 48.0 kHz
Частота кадров : 31.250 FPS (1536 SPF)
Битовая глубина : 16 bits
Метод сжатия : Lossy
Размер потока : 309 MiB (22%)
Выравнивание : Split accross interleaves
Продолжительность промежутка : 42 ms (1.00 video frame)
Время предзагрузки промежутка : 500 ms
ServiceKind/String : Complete Main
Скриншоты:

2012 «Три богатыря на дальних берегах»

Три богатыря на дальних берегах (2012) BDRip- Производство: Россия
Жанр: мультфильм, комедия, приключения, фэнтези, семейный
Режиссер: Константин Феоктистов
Описание: На этот раз Алеша Попович, Добрыня Никитич и Илья Муромец, благодаря козням коварной Бабы Яги, оказываются за семью морями на острове, на котором живут туземцы и страшный Гомума. В их отсутствие купец Колыван решают вместе с Бабой-Ягой захватить царство и забрать власть у князя Киевского. На помощь незадачливому правителю приходит конь Юлий, а также жены богатырей и их многочисленные родственники. Словом, богатырей и зрителей ждут приключения на дальних берегах, обыкновенные и невероятные.

Возраст: 0+ (для любой зрительской аудитории)
Продолжительность: 01:11:18
Качество видео: BDRip
Субтитры: Отсутствуют
Видео: Xvid, 720x400 (16:9), ~2398 Kbps (0.347 bit/pixel)
Аудио: Dolby AC3, 48.0 kHz, 6 ch, 448 Kbps

Mediainfo:

Общее
Полное имя : Три богатыря на дальних берегах (2012) BDRip.avi
Формат : AVI
Формат/Информация : Audio Video Interleave
Размер файла : 1,42 Гбайт
Продолжительность : 1 ч. 11 м.
Общий поток : 2855 Кбит/сек
Программа кодирования : VirtualDubMod 1.5.10.2 (build 2540/release)
Библиотека кодирования : VirtualDubMod build 2540/release
Видео
Идентификатор : 0
Формат : MPEG-4 Visual
Профиль формата : Advanced Simple@L5
Настройки формата : BVOP1 / Custom Matrix
Параметр BVOP формата : 1
Параметр QPel формата : Нет
Параметр GMC формата : Без точки перехода
Параметр матрицы формата : Выборочная
Идентификатор кодека : XVID
Идентификатор кодека/Подсказка : XviD
Продолжительность : 1 ч. 11 м.
Битрейт : 2398 Кбит/сек
Ширина : 720 пикселей
Высота : 400 пикселей
Соотношение сторон : 16:9
Частота кадров : 23,976 (24000/1001) кадра/сек
Цветовое пространство : YUV
Субдискретизация насыщенности : 4:2:0
Битовая глубина : 8 бит
Тип развёртки : Прогрессивная
Метод сжатия : С потерями
Бит/(Пиксели*Кадры) : 0.347
Размер потока : 1,19 Гбайт (84%)
Библиотека кодирования : XviD 65
Аудио
Идентификатор : 1
Формат : AC-3
Формат/Информация : Audio Coding 3
Коммерческое название : Dolby Digital
Идентификатор кодека : 2000
Продолжительность : 1 ч. 11 м.
Вид битрейта : Постоянный
Битрейт : 448 Кбит/сек
Каналы : 6 каналов
Channel layout : L R C LFE Ls Rs
Частота : 48,0 КГц
Частота кадров : 31,250 кадров/сек (1536 SPF)
Битовая глубина : 16 бит
Метод сжатия : С потерями
Размер потока : 228 Мбайт (16%)
Выравнивание : Разделение по промежуткам
Продолжительность промежутка : 42 мс. (1,00 видеокадр)
Время предзагрузки промежутка : 500 мс.
ServiceKind/String : Complete Main
Скриншоты:

2013 «Иван Царевич и Серый Волк 2»

Иван Царевич и Серый Волк 2 (2013) HDRip- Производство: Россия
Жанр: мультфильм, приключения, семейный, фэнтези
Режиссер: Владимир Торопчин
Описание: В Тридевятом царстве, где живут наши герои — тишь, да благодать. Иван женился на Василисе, и «жили они долго и счастливо», да не тут-то было. Иван целыми днями пропадает с Волком на службе — укрепляет рубежи и оборонную мощь, мечтает перевести стрелки часов на семь часов назад, чтобы меньше спать, и больше работать. А Василисе — скучно, как всем девушкам, ей хочется романтики, ну, такой, как в сказках. И тогда она решает организовать свое похищение… Однако, когда такое бывало, что в сказках все получалось так, как задумывалось?

Возраст: 0+ (для любой зрительской аудитории)
Продолжительность: 01:12:38
Качество видео: BDRip
Субтитры: Отсутствуют
Видео: Xvid, 720х400 16:9, ~1785 Kbps (0.258 bit/pixel)
Аудио: Dolby AC3, 48.0 kHz, 6 ch, 448 Kbps

Mediainfo:

Общее
Полное имя : Иван Царевич и Серый Волк 2 (2013) HDRip.avi
Формат : AVI
Формат/Информация : Audio Video Interleave
Размер файла : 1,37 Гбайт
Продолжительность : 1 ч. 12 м.
Общий поток : 2695 Кбит/сек
Программа кодирования : VirtualDubMod 1.5.10.2 (build 2540/release)
Библиотека кодирования : VirtualDubMod build 2540/release
Видео
Идентификатор : 0
Формат : MPEG-4 Visual
Профиль формата : Advanced Simple@L5
Настройки формата : BVOP2
Параметр BVOP формата : 2
Параметр QPel формата : Нет
Параметр GMC формата : Без точки перехода
Параметр матрицы формата : Default (MPEG)
Идентификатор кодека : XVID
Идентификатор кодека/Подсказка : XviD
Продолжительность : 1 ч. 12 м.
Битрейт : 1785 Кбит/сек
Ширина : 720 пикселей
Высота : 400 пикселей
Соотношение сторон : 16:9
Частота кадров : 24,000 кадра/сек
Цветовое пространство : YUV
Субдискретизация насыщенности : 4:2:0
Битовая глубина : 8 бит
Тип развёртки : Прогрессивная
Метод сжатия : С потерями
Бит/(Пиксели*Кадры) : 0.258
Размер потока : 927 Мбайт (66%)
Библиотека кодирования : XviD 1.2.1 (UTC 2008-12-04)
Аудио #1
Идентификатор : 1
Формат : AC-3
Формат/Информация : Audio Coding 3
Коммерческое название : Dolby Digital
Идентификатор кодека : 2000
Продолжительность : 1 ч. 12 м.
Вид битрейта : Постоянный
Битрейт : 448 Кбит/сек
Каналы : 6 каналов
Channel layout : L R C LFE Ls Rs
Частота : 48,0 КГц
Частота кадров : 31,250 кадров/сек (1536 SPF)
Битовая глубина : 16 бит
Метод сжатия : С потерями
Размер потока : 233 Мбайт (17%)
Выравнивание : Разделение по промежуткам
Продолжительность промежутка : 42 мс. (1,00 видеокадр)
Время предзагрузки промежутка : 500 мс.
ServiceKind/String : Complete Main
Аудио #2
Идентификатор : 2
Формат : AC-3
Формат/Информация : Audio Coding 3
Коммерческое название : Dolby Digital
Идентификатор кодека : 2000
Продолжительность : 1 ч. 12 м.
Вид битрейта : Постоянный
Битрейт : 448 Кбит/сек
Каналы : 6 каналов
Channel layout : L R C LFE Ls Rs
Частота : 48,0 КГц
Частота кадров : 31,250 кадров/сек (1536 SPF)
Битовая глубина : 16 бит
Метод сжатия : С потерями
Размер потока : 233 Мбайт (17%)
Выравнивание : Разделение по промежуткам
Продолжительность промежутка : 42 мс. (1,00 видеокадр)
Время предзагрузки промежутка : 500 мс.
ServiceKind/String : Complete Main
Скриншоты:

2013 «Как поймать перо Жар-Птицы»

Как поймать перо Жар-Птицы (2013) BDRip-[poster=img]http://funkyimg.com/i/2Q2bK.jpg[/img]
Производство: Россия
Жанр: мультфильм, фэнтези
Режиссер: Георгий Гитис, Вячеслав Плотников
Описание: Во исполнение воли царя Берендея, младший сын его Иван отправляется на поиски диковинной Жар-птицы. В поисках удачи Ивана Царевича сопровождает верный друг и помощник — Серый Волк, который, обладает всевозможными навыками и всегда спешит на помощь простодушному Ивану. Героев ждут увлекательные и опасные приключения, козни коварных братьев Ивана и его судьбоносная встреча с Еленой Прекрасной. Юные зрители погрузятся в волшебный мир русской сказки, с её традициями и характерной эстетикой, причудливо перемежающейся с приметами современного жанрового кино. Ну, а родители оценят актуальный юмор и модную современную музыку, написанную специально для фильма популярными рок-музыкантами.

Возраст: 0+ (для любой зрительской аудитории)
Продолжительность: 01:08:41
Качество видео: BDRip
Субтитры: Отсутствуют
Видео: Xvid, 720x400 (16:9), ~2394 Kbps (0.346 bit/pixel)
Аудио: Dolby AC3, 48.0 kHz, 6 ch, 448 Kbps

Mediainfo:

Общее
Полное имя : Как поймать перо Жар-Птицы (2013) BDRip.avi
Формат : AVI
Формат/Информация : Audio Video Interleave
Размер файла : 1,37 Гбайт
Продолжительность : 1 ч. 8 м.
Общий поток : 2851 Кбит/сек
Программа кодирования : VirtualDubModRus 1.5.10.2 (build 2542/release)
Библиотека кодирования : VirtualDubMod build 2542/release
Видео
Идентификатор : 0
Формат : MPEG-4 Visual
Профиль формата : Advanced Simple@L5
Настройки формата : BVOP1 / Custom Matrix
Параметр BVOP формата : 1
Параметр QPel формата : Нет
Параметр GMC формата : Без точки перехода
Параметр матрицы формата : Выборочная
Идентификатор кодека : XVID
Идентификатор кодека/Подсказка : XviD
Продолжительность : 1 ч. 8 м.
Битрейт : 2394 Кбит/сек
Ширина : 720 пикселей
Высота : 400 пикселей
Соотношение сторон : 16:9
Частота кадров : 24,000 кадра/сек
Цветовое пространство : YUV
Субдискретизация насыщенности : 4:2:0
Битовая глубина : 8 бит
Тип развёртки : Прогрессивная
Метод сжатия : С потерями
Бит/(Пиксели*Кадры) : 0.346
Размер потока : 1,15 Гбайт (84%)
Библиотека кодирования : XviD 73
Аудио
Идентификатор : 1
Формат : AC-3
Формат/Информация : Audio Coding 3
Коммерческое название : Dolby Digital
Идентификатор кодека : 2000
Продолжительность : 1 ч. 8 м.
Вид битрейта : Постоянный
Битрейт : 448 Кбит/сек
Каналы : 6 каналов
Channel layout : L R C LFE Ls Rs
Частота : 48,0 КГц
Частота кадров : 31,250 кадров/сек (1536 SPF)
Битовая глубина : 16 бит
Метод сжатия : С потерями
Размер потока : 220 Мбайт (16%)
Выравнивание : Разделение по промежуткам
Продолжительность промежутка : 42 мс. (1,00 видеокадр)
Время предзагрузки промежутка : 500 мс.
ServiceKind/String : Complete Main
Скриншоты:

2014 «Три богатыря. Ход конём»

Три богатыря. Ход конём (2014) BDRip- Производство: Россия
Жанр: мультфильм, комедия, приключения, фэнтези
Режиссер: Константин Феоктистов
Описание: Придворный конь Гай Юлий Цезарь на свою беду подслушивает разговор бояр и узнает о заговоре против князя. Что же делать? Защитить-то князя некому! Богатыри далеко — ловят разбойника Потаню, Горыныч в отпуске, войско на учениях… Но если плохие парни собираются захватить мир, то кому-то же надо его спасти? Кто же он, настоящий герой, который придет на помощь? Конечно, конь Юлий! Настоящий стратег и «великий комбинатор». Он непременно всех спасет, а если не спасет, то хотя бы постарается. Главное, чтобы операция по спасению мира не обернулась полной катастрофой.

Возраст: 6+ (зрителям, достигшим 6 лет)
Продолжительность: 01:14:43
Качество видео: BDRip
Субтитры: Отсутствуют
Видео: Xvid, 704x384 (1,85:1), ~2321 Kbps (0.358 bit/pixel)
Аудио: Dolby AC3, 48.0 kHz, 6 ch, 448 Kbps

Mediainfo:

Общее
Полное имя : Три богатыря. Ход конём (2014) BDRip.avi
Формат : AVI
Формат/Информация : Audio Video Interleave
Размер файла : 1,45 Гбайт
Продолжительность : 1 ч. 14 м.
Общий поток : 2778 Кбит/сек
Название фильма : Tri.Bogatirya.Hod.Konem.2014.O.BDRip.1.45Gb_by_Twi7ter
Режиссёр : Twi7ter
Жанр : Adventure/Comedy/Family
Программа кодирования : VirtualDubMod 1.5.10.3 (build 2550/release)
Формат оригинала/Имя : Cartoon
Видео
Идентификатор : 0
Формат : MPEG-4 Visual
Профиль формата : Advanced Simple@L5
Настройки формата : BVOP2 / Custom Matrix
Параметр BVOP формата : 2
Параметр QPel формата : Нет
Параметр GMC формата : Без точки перехода
Параметр матрицы формата : Выборочная
Идентификатор кодека : XVID
Идентификатор кодека/Подсказка : XviD
Продолжительность : 1 ч. 14 м.
Битрейт : 2321 Кбит/сек
Ширина : 704 пикселя
Высота : 384 пикселя
Соотношение сторон : 1,85:1
Частота кадров : 24,000 кадра/сек
Цветовое пространство : YUV
Субдискретизация насыщенности : 4:2:0
Битовая глубина : 8 бит
Тип развёртки : Прогрессивная
Метод сжатия : С потерями
Бит/(Пиксели*Кадры) : 0.358
Размер потока : 1,21 Гбайт (84%)
Библиотека кодирования : XviD 73
Аудио
Идентификатор : 1
Формат : AC-3
Формат/Информация : Audio Coding 3
Коммерческое название : Dolby Digital
Идентификатор кодека : 2000
Продолжительность : 1 ч. 14 м.
Вид битрейта : Постоянный
Битрейт : 448 Кбит/сек
Каналы : 6 каналов
Channel layout : L R C LFE Ls Rs
Частота : 48,0 КГц
Частота кадров : 31,250 кадров/сек (1536 SPF)
Битовая глубина : 16 бит
Метод сжатия : С потерями
Размер потока : 239 Мбайт (16%)
Выравнивание : Разделение по промежуткам
Продолжительность промежутка : 42 мс. (1,00 видеокадр)
Время предзагрузки промежутка : 500 мс.
ServiceKind/String : Complete Main
Скриншоты:

2015 «Крепость: Щитом и мечом»

Крепость: Щитом и мечом (2015) BDRip- Производство: Россия
Жанр: мультфильм, приключения, военный, семейный
Режиссер: Федор Дмитриев
Описание: 1609 год. Идет война. Польско-литовские войска взяли в осаду Смоленск, но русский гарнизон во главе с воеводой Михаилом Шеиным готов держать оборону до конца. Смоленск — главная крепость на пути захватчиков к Москве, и его нельзя сдавать без боя. Об этом знают даже дети.
Мальчик Сашка лепит самодельные бомбы из теста и колдует в защиту города — вызывает на помощь Царя с Огненным щитом и Пламенным копьем. Пока волшебный царь не пришел, Сашка и его друг Федор просятся в помощники к воеводе. Им предстоит разрушить коварные планы польского короля Сигизмунда Третьего и справиться с нечистой силой, что по ночам бродит по осажденной крепости.

Возраст: 6+ (зрителям, достигшим 6 лет)
Продолжительность: 01:16:53
Качество видео: BDRip
Субтитры: Отсутствуют
Видео: Xvid, 720x304 (2,35:1), ~2250 Kbps (0.428 bit/pixel)
Аудио: Dolby AC3, 48.0 kHz, 6 ch, 448 Kbps

Mediainfo:

Общее
Полное имя : Крепость Щитом и мечом (2015) BDRip.avi
Формат : AVI
Формат/Информация : Audio Video Interleave
Размер файла : 1,45 Гбайт
Продолжительность : 1 ч. 16 м.
Общий поток : 2707 Кбит/сек
Название фильма : Крепость: щитом и мечом (2015) BDRip
Режиссёр : Elheym
Программа кодирования : VirtualDubMod 1.5.10.2 (build 2540/release)
Авторское право : HQCLUB
Примечание : 12.02.2016
Видео
Идентификатор : 0
Формат : MPEG-4 Visual
Профиль формата : Advanced Simple@L5
Настройки формата : BVOP1 / Custom Matrix
Параметр BVOP формата : 1
Параметр QPel формата : Нет
Параметр GMC формата : Без точки перехода
Параметр матрицы формата : Выборочная
Идентификатор кодека : XVID
Идентификатор кодека/Подсказка : XviD
Продолжительность : 1 ч. 16 м.
Битрейт : 2250 Кбит/сек
Ширина : 720 пикселей
Высота : 304 пикселя
Соотношение сторон : 2,35:1
Частота кадров : 24,000 кадра/сек
Цветовое пространство : YUV
Субдискретизация насыщенности : 4:2:0
Битовая глубина : 8 бит
Тип развёртки : Прогрессивная
Метод сжатия : С потерями
Бит/(Пиксели*Кадры) : 0.428
Размер потока : 1,21 Гбайт (83%)
Библиотека кодирования : XviD 67
Аудио
Идентификатор : 1
Формат : AC-3
Формат/Информация : Audio Coding 3
Коммерческое название : Dolby Digital
Идентификатор кодека : 2000
Продолжительность : 1 ч. 16 м.
Вид битрейта : Постоянный
Битрейт : 448 Кбит/сек
Каналы : 6 каналов
Channel layout : L R C LFE Ls Rs
Частота : 48,0 КГц
Частота кадров : 31,250 кадров/сек (1536 SPF)
Битовая глубина : 16 бит
Метод сжатия : С потерями
Размер потока : 246 Мбайт (17%)
Выравнивание : Разделение по промежуткам
Продолжительность промежутка : 42 мс. (1,00 видеокадр)
Время предзагрузки промежутка : 500 мс.
ServiceKind/String : Complete Main
Скриншоты:

2016 «Волки и овцы - бе-е-е-зумное превращение»

Волки и овцы - бе-е-е-зумное превращение (2016) HDRip- Производство: Россия
Жанр: мультфильм, семейный, комедия, приключения
Режиссер: Максим Волков, Андрей Галат
Описание: Любимцу стаи, молодому и беззаботному волку Серому невдомек, что скоро он окажется чужим среди своих друзей. Претендуя на роль вожака стаи и на руку (вернее, лапу) и сердце самой красивой волчицы Бьянки, Серый продолжает дурачиться и устраивать розыгрыши над сородичами. Все переворачивается с ног на голову, когда он решает изменить себя с помощью волшебного зелья. Чудо действительно происходит: Серый превращается в барана! Опасаясь за свою, теперь овечью, шкуру, Серый сбегает от волков и поселяется в деревне овец.
Теперь Серому предстоит не только вернуть доверие возлюбленной и стаи, но и свой прежний облик. Но как это сделать, если у тебя есть всего три дня, да еще рога и копыта?

Возраст: 6+ (зрителям, достигшим 6 лет)
Продолжительность: 01:24:47
Качество видео: HDRip
Субтитры: Отсутствуют
Видео: Xvid, 720x304 (2,35:1), ~1915 Kbps (0.365 bit/pixel)
Аудио: Dolby AC3, 48.0 kHz, 6 ch, 384 Kbps

Mediainfo:

Общее
Полное имя : Волки и овцы - бе-е-е-зумное превращение (2016) HDRip.avi
Формат : AVI
Формат/Информация : Audio Video Interleave
Размер файла : 1,37 Гбайт
Продолжительность : 1 ч. 24 м.
Общий поток : 2308 Кбит/сек
Программа кодирования : VirtualDubMod 1.5.10.2 (build 2540/release)
Библиотека кодирования : VirtualDubMod build 2540/release
Видео
Идентификатор : 0
Формат : MPEG-4 Visual
Профиль формата : Advanced Simple@L5
Настройки формата : BVOP2
Параметр BVOP формата : 2
Параметр QPel формата : Нет
Параметр GMC формата : Без точки перехода
Параметр матрицы формата : Default (MPEG)
Идентификатор кодека : XVID
Идентификатор кодека/Подсказка : XviD
Продолжительность : 1 ч. 24 м.
Битрейт : 1915 Кбит/сек
Ширина : 720 пикселей
Высота : 304 пикселя
Соотношение сторон : 2,35:1
Частота кадров : 23,976 (24000/1001) кадра/сек
Цветовое пространство : YUV
Субдискретизация насыщенности : 4:2:0
Битовая глубина : 8 бит
Тип развёртки : Прогрессивная
Метод сжатия : С потерями
Бит/(Пиксели*Кадры) : 0.365
Размер потока : 1,13 Гбайт (83%)
Библиотека кодирования : XviD 1.2.1 (UTC 2008-12-04)
Аудио
Идентификатор : 1
Формат : AC-3
Формат/Информация : Audio Coding 3
Коммерческое название : Dolby Digital
Идентификатор кодека : 2000
Продолжительность : 1 ч. 24 м.
Вид битрейта : Постоянный
Битрейт : 384 Кбит/сек
Каналы : 6 каналов
Channel layout : L R C LFE Ls Rs
Частота : 48,0 КГц
Частота кадров : 31,250 кадров/сек (1536 SPF)
Битовая глубина : 16 бит
Метод сжатия : С потерями
Размер потока : 233 Мбайт (17%)
Выравнивание : Разделение по промежуткам
Продолжительность промежутка : 42 мс. (1,00 видеокадр)
Время предзагрузки промежутка : 500 мс.
ServiceKind/String : Complete Main
Скриншоты:

2015 «Иван Царевич и Серый волк 3»

Иван Царевич и Серый волк 3 (2015) BDRip- Производство: Россия
Жанр: мультфильм, приключения, семейный, фэнтези
Режиссер: Дарина Шмидт
Описание: Царь Тридевятого царства, в честь своего 150-летия решил, что с него хватит — пора на заслуженный отдых. «Я устал. Я ухожу», — заявил самодержец и с удочкой и ведёрком удалился в деревенскую глушь. А оберегать государство остались Иван с Серым Волком. Вот только Василиса, жена Ивана, заявила, что свадебного путешествия у неё не было, заграницу она не видела, «постить» в инстаграм решительно нечего и вообще.
Иван спорить не стал, а вместе с Василисой, Котом — ученым и Серым Волком, погрузился на ковер-самолет и отправился в путь. А за главного в стране герои оставили самое обычное огородное пугало… Но пока компания шаталась по Миланам и Парижам, Пугало ожило и начало наводить свои порядки в Тридевятом царстве…

Возраст: 6+ (зрителям, достигшим 6 лет)
Продолжительность: 01:17:07
Качество видео: BDRip
Субтитры: Отсутствуют
Видео: Xvid, 704x400 (16:9), ~2239 Kbps (0.331 bit/pixel)
Аудио: Dolby AC3, 48.0 kHz, 6 ch, 448 Kbps

Mediainfo:

Общее
Полное имя : Иван Царевич и Серый волк 3 (2015) BDRip.avi
Формат : AVI
Формат/Информация : Audio Video Interleave
Размер файла : 1,45 Гбайт
Продолжительность : 1 ч. 17 м.
Общий поток : 2696 Кбит/сек
Программа кодирования : VirtualDubMod 1.5.10.3 | www.virtualdub-fr.org || (build 2550/release)
Библиотека кодирования : VirtualDubMod build 2550/release
Видео
Идентификатор : 0
Формат : MPEG-4 Visual
Профиль формата : Advanced Simple@L5
Настройки формата : BVOP1 / Custom Matrix
Параметр BVOP формата : 1
Параметр QPel формата : Нет
Параметр GMC формата : Без точки перехода
Параметр матрицы формата : Выборочная
Идентификатор кодека : XVID
Идентификатор кодека/Подсказка : XviD
Продолжительность : 1 ч. 17 м.
Битрейт : 2239 Кбит/сек
Ширина : 704 пикселя
Высота : 400 пикселей
Соотношение сторон : 16:9
Частота кадров : 24,000 кадра/сек
Цветовое пространство : YUV
Субдискретизация насыщенности : 4:2:0
Битовая глубина : 8 бит
Тип развёртки : Прогрессивная
Метод сжатия : С потерями
Бит/(Пиксели*Кадры) : 0.331
Размер потока : 1,21 Гбайт (83%)
Библиотека кодирования : XviD 67
Аудио
Идентификатор : 1
Формат : AC-3
Формат/Информация : Audio Coding 3
Коммерческое название : Dolby Digital
Идентификатор кодека : 2000
Продолжительность : 1 ч. 17 м.
Вид битрейта : Постоянный
Битрейт : 448 Кбит/сек
Каналы : 6 каналов
Channel layout : L R C LFE Ls Rs
Частота : 48,0 КГц
Частота кадров : 31,250 кадров/сек (1536 SPF)
Битовая глубина : 16 бит
Метод сжатия : С потерями
Размер потока : 247 Мбайт (17%)
Выравнивание : Разделение по промежуткам
Продолжительность промежутка : 42 мс. (1,00 видеокадр)
Время предзагрузки промежутка : 500 мс.
ServiceKind/String : Complete Main
Скриншоты:

2016 «Синдбад. Пираты семи штормов»

Синдбад. Пираты семи штормов (2016) WEB-DLRip- Производство: Россия
Жанр: мультфильм
Режиссер: Владлен Барбэ
Описание: Синдбад, молодой веселый пират, не очень удачлив в пиратском промысле — за год ему и его команде не удалось захватить ни одного корабля. Но судьба улыбается Синдбаду: старик Антиох показывает ему старинную карту и предлагает плыть на остров Скелета, где хранятся сокровища. Синдбад не знает, что этот Антиох — волшебник, который преследует свои корыстные планы…
Да тут еще Солара, подруга Синдбада по детским играм, свалилась ему на голову! Неужели любовь? Нет, Синдбад так просто не сдается! Путь на остров Скелета лежит через Море Семи Штормов. Синдабада и его команду ждет сражение с Канатным Монстром и встреча со своим заклятым врагом пиратом Кесамом. Да и на острове не обойдется без приключений: Циклоп, Птица Рух и ее Птенчик уже давно ждут гостей.

Возраст: 6+ (зрителям, достигшим 6 лет)
Продолжительность: 01:17:31
Качество видео: WEB-DLRip
Субтитры: Отсутствуют
Видео: Xvid, 720x384 (1,85:1), ~2132 Kbps (0.321 bit/pixel)
Аудио: Dolby AC3, 48.0 kHz, 6 ch, 384 Kbps

Mediainfo:

Общее
Полное имя : Синдбад. Пираты семи штормов (2016) WEB-DLRip.avi
Формат : AVI
Формат/Информация : Audio Video Interleave
Размер файла : 1,37 Гбайт
Продолжительность : 1 ч. 17 м.
Общий поток : 2525 Кбит/сек
Программа кодирования : VirtualDubMod 1.5.10.2 (build 2540/release)
Библиотека кодирования : VirtualDubMod build 2540/release
Видео
Идентификатор : 0
Формат : MPEG-4 Visual
Профиль формата : Advanced Simple@L5
Настройки формата : BVOP2
Параметр BVOP формата : 2
Параметр QPel формата : Нет
Параметр GMC формата : Без точки перехода
Параметр матрицы формата : Default (MPEG)
Идентификатор кодека : XVID
Идентификатор кодека/Подсказка : XviD
Продолжительность : 1 ч. 17 м.
Битрейт : 2132 Кбит/сек
Ширина : 720 пикселей
Высота : 384 пикселя
Соотношение сторон : 1,85:1
Частота кадров : 24,000 кадра/сек
Цветовое пространство : YUV
Субдискретизация насыщенности : 4:2:0
Битовая глубина : 8 бит
Тип развёртки : Прогрессивная
Метод сжатия : С потерями
Бит/(Пиксели*Кадры) : 0.321
Размер потока : 1,15 Гбайт (84%)
Библиотека кодирования : XviD 1.2.1 (UTC 2008-12-04)
Аудио
Идентификатор : 1
Формат : AC-3
Формат/Информация : Audio Coding 3
Коммерческое название : Dolby Digital
Идентификатор кодека : 2000
Продолжительность : 1 ч. 17 м.
Вид битрейта : Постоянный
Битрейт : 384 Кбит/сек
Каналы : 6 каналов
Channel layout : L R C LFE Ls Rs
Частота : 48,0 КГц
Частота кадров : 31,250 кадров/сек (1536 SPF)
Битовая глубина : 16 бит
Метод сжатия : С потерями
Размер потока : 213 Мбайт (15%)
Выравнивание : Разделение по промежуткам
Продолжительность промежутка : 42 мс. (1,00 видеокадр)
Время предзагрузки промежутка : 500 мс.
ServiceKind/String : Complete Main
Скриншоты:

2016 «Три богатыря и морской царь»

Три богатыря и морской царь (2016) WEB-DLRip- Производство: Россия
Жанр: мультфильм, комедия, приключения, семейный
Режиссер: Константин Феоктистов
Описание: У богатырей семейные неурядицы. Чтобы развеяться, они решают по-быстрому сгонять в Китай за зубом дракона, символом мудрости и силы. В это же время князь Киевский отправляется на прогулку вместе с конем Юлием за сокровищами морского царя, чтобы пополнить казну и «залатать бюджет». Да вот только морской царь решил жениться и для этого утопил Киев. И как теперь быть? Что поможет нашим героям? Дружба, смелость и, конечно, любовь.

Возраст: 6+ (зрителям, достигшим 6 лет)
Продолжительность: 01:13:37
Качество видео: WEB-DLRip
Субтитры: Отсутствуют
Видео: Xvid, 704x384 (1,85:1), ~2268 Kbps (0.336 bit/pixel)
Аудио: Dolby AC3, 48.0 kHz, 6 ch, 384 Kbps

Mediainfo:

Общее
Полное имя : Три богатыря и морской царь (2016) WEB-DLRip.avi
Формат : AVI
Формат/Информация : Audio Video Interleave
Размер файла : 1,37 Гбайт
Продолжительность : 1 ч. 13 м.
Общий поток : 2662 Кбит/сек
Программа кодирования : VirtualDubMod 1.5.10.3 | www.virtualdub-fr.org || (build 2550/release)
Библиотека кодирования : VirtualDubMod build 2550/release
Видео
Идентификатор : 0
Формат : MPEG-4 Visual
Профиль формата : Advanced Simple@L5
Настройки формата : BVOP2 / Custom Matrix
Параметр BVOP формата : 2
Параметр QPel формата : Нет
Параметр GMC формата : Без точки перехода
Параметр матрицы формата : Выборочная
Идентификатор кодека : XVID
Идентификатор кодека/Подсказка : XviD
Продолжительность : 1 ч. 13 м.
Битрейт : 2268 Кбит/сек
Ширина : 704 пикселя
Высота : 384 пикселя
Соотношение сторон : 1,85:1
Частота кадров : 25,000 кадров/сек
Цветовое пространство : YUV
Субдискретизация насыщенности : 4:2:0
Битовая глубина : 8 бит
Тип развёртки : Прогрессивная
Метод сжатия : С потерями
Бит/(Пиксели*Кадры) : 0.336
Размер потока : 1,17 Гбайт (85%)
Библиотека кодирования : XviD 67
Аудио
Идентификатор : 1
Формат : AC-3
Формат/Информация : Audio Coding 3
Коммерческое название : Dolby Digital
Идентификатор кодека : 2000
Продолжительность : 1 ч. 13 м.
Вид битрейта : Постоянный
Битрейт : 384 Кбит/сек
Каналы : 6 каналов
Channel layout : L R C LFE Ls Rs
Частота : 48,0 КГц
Частота кадров : 31,250 кадров/сек (1536 SPF)
Битовая глубина : 16 бит
Метод сжатия : С потерями
Размер потока : 202 Мбайт (14%)
Выравнивание : Разделение по промежуткам
Продолжительность промежутка : 40 мс. (1,00 видеокадр)
Время предзагрузки промежутка : 500 мс.
ServiceKind/String : Complete Main
Скриншоты:

2016 «Урфин Джюс и его деревянные солдаты»

Урфин Джюс и его деревянные солдаты (2016) WEB-DLRip- Производство: Россия
Жанр: мультфильм, приключения, семейный, фэнтези
Режиссер: Владимир Торопчин, Федор Дмитриев, Дарина Шмидт
Описание: Коварный и злобный Урфин Джюс решил стать повелителем Волшебной страны, захватить Изумрудный город при помощи своих солдат-дуболомов и переименовать его в Урфинград. Он уже готовится праздновать победу, но в дело вмешивается самая обычная девочка Элли, которая оказалась в Волшебной стране в самое подходящее время. Ей очень нужно вернуться домой, но прежде она должна помочь своим друзьям Страшиле, Дровосеку и Льву победить Урфина и его армию.

Возраст: 0+ (для любой зрительской аудитории)
Продолжительность: 01:27:22
Качество видео: WEB-DLRip
Субтитры: Отсутствуют
Видео: Xvid, 720x304 (2,35:1), ~1993 Kbps (0.364 bit/pixel)
Аудио: Dolby AC3, 48.0 kHz, 6 ch, 384 Kbps

Mediainfo:

Общее
Полное имя : Урфин Джюс и его деревянные солдаты (2017) WEB-DLRip.avi
Формат : AVI
Формат/Информация : Audio Video Interleave
Размер файла : 1,46 Гбайт
Продолжительность : 1 ч. 27 м.
Общий поток : 2386 Кбит/сек
Программа кодирования : VirtualDubMod 1.5.10.3 | www.virtualdub-fr.org || (build 2550/release)
Библиотека кодирования : VirtualDubMod build 2550/release
Видео
Идентификатор : 0
Формат : MPEG-4 Visual
Профиль формата : Advanced Simple@L5
Настройки формата : BVOP1 / Custom Matrix
Параметр BVOP формата : 1
Параметр QPel формата : Нет
Параметр GMC формата : Без точки перехода
Параметр матрицы формата : Выборочная
Идентификатор кодека : XVID
Идентификатор кодека/Подсказка : XviD
Продолжительность : 1 ч. 27 м.
Битрейт : 1993 Кбит/сек
Ширина : 720 пикселей
Высота : 304 пикселя
Соотношение сторон : 2,35:1
Частота кадров : 25,000 кадров/сек
Цветовое пространство : YUV
Субдискретизация насыщенности : 4:2:0
Битовая глубина : 8 бит
Тип развёртки : Прогрессивная
Метод сжатия : С потерями
Бит/(Пиксели*Кадры) : 0.364
Размер потока : 1,22 Гбайт (84%)
Библиотека кодирования : XviD 73
Аудио
Идентификатор : 1
Формат : AC-3
Формат/Информация : Audio Coding 3
Коммерческое название : Dolby Digital
Идентификатор кодека : 2000
Продолжительность : 1 ч. 27 м.
Вид битрейта : Постоянный
Битрейт : 384 Кбит/сек
Каналы : 6 каналов
Channel layout : L R C LFE Ls Rs
Частота : 48,0 КГц
Частота кадров : 31,250 кадров/сек (1536 SPF)
Битовая глубина : 16 бит
Метод сжатия : С потерями
Размер потока : 240 Мбайт (16%)
Выравнивание : Разделение по промежуткам
Продолжительность промежутка : 40 мс. (1,00 видеокадр)
Время предзагрузки промежутка : 500 мс.
ServiceKind/String : Complete Main
Скриншоты:

2017 «Садко»

Садко (2017) WEB-DLRip- Производство: Россия
Жанр: мультфильм, комедия, семейный
Режиссер: Максим Волков, Виталий Мухаметзянов
Описание: Хоть беги, хоть не беги, а от любви нигде не скрыться. Ни в палатах новгородского князя, ни на дне морском. Особенно, если зовут тебя Садко, и ты симпатичный веселый парень. К тому же, на гуслях играть мастак. Вот только за настоящую любовь еще и повоевать придется. Да не с кем-нибудь, а с подводной ведьмой Барракудой. Но любовь все равно победит. Вот увидите!

Возраст: 6+ (зрителям, достигшим 6 лет)
Продолжительность: 01:17:50
Качество видео: WEB-DLRip
Субтитры: Отсутствуют
Видео: Xvid, 720x304 (2,35:1), ~2283 Kbps (0.417 bit/pixel)
Аудио: Dolby AC3, 48.0 kHz, 6 ch, 384 Kbps

Mediainfo:

Общее
Полное имя : Садко (2017) WEB-DLRip.avi
Формат : AVI
Формат/Информация : Audio Video Interleave
Размер файла : 1,46 Гбайт
Продолжительность : 1 ч. 17 м.
Общий поток : 2677 Кбит/сек
Программа кодирования : VirtualDubMod 1.5.10.3 | www.virtualdub-fr.org || (build 2550/release)
Библиотека кодирования : VirtualDubMod build 2550/release
Видео
Идентификатор : 0
Формат : MPEG-4 Visual
Профиль формата : Advanced Simple@L5
Настройки формата : BVOP1 / Custom Matrix
Параметр BVOP формата : 1
Параметр QPel формата : Нет
Параметр GMC формата : Без точки перехода
Параметр матрицы формата : Выборочная
Идентификатор кодека : XVID
Идентификатор кодека/Подсказка : XviD
Продолжительность : 1 ч. 17 м.
Битрейт : 2283 Кбит/сек
Ширина : 720 пикселей
Высота : 304 пикселя
Соотношение сторон : 2,35:1
Частота кадров : 25,000 кадров/сек
Цветовое пространство : YUV
Субдискретизация насыщенности : 4:2:0
Битовая глубина : 8 бит
Тип развёртки : Прогрессивная
Метод сжатия : С потерями
Бит/(Пиксели*Кадры) : 0.417
Размер потока : 1,24 Гбайт (85%)
Библиотека кодирования : XviD 73
Аудио
Идентификатор : 1
Формат : AC-3
Формат/Информация : Audio Coding 3
Коммерческое название : Dolby Digital
Идентификатор кодека : 2000
Продолжительность : 1 ч. 17 м.
Вид битрейта : Постоянный
Битрейт : 384 Кбит/сек
Каналы : 6 каналов
Channel layout : L R C LFE Ls Rs
Частота : 48,0 КГц
Частота кадров : 31,250 кадров/сек (1536 SPF)
Битовая глубина : 16 бит
Метод сжатия : С потерями
Размер потока : 214 Мбайт (14%)
Выравнивание : Разделение по промежуткам
Продолжительность промежутка : 40 мс. (1,00 видеокадр)
Время предзагрузки промежутка : 500 мс.
ServiceKind/String : Complete Main
Скриншоты:

2017 «Три богатыря и принцесса Египта»

Три богатыря и принцесса Египта (2017) BDRip- Производство: Россия
Жанр: мультфильм, приключения, семейный, фэнтези
Режиссер: Константин Феоктистов
Описание: В новогоднюю ночь, в то время, как Князь готовится произнести торжественную речь, а Юлий распаковывает подарки и следит за приготовлением праздничного стола, богатыри едут в гости к Алёше и встречают там странного товарища по имени Дурило. Оказывается, это тринадцатый месяц, который никому особенно не нужен, и который пытается осуществить своё заветное желание — стать самым главным месяцем в году. Только и надо ему, что притвориться Дедом Морозом, показать доверчивому Алёше пару фокусов, подружиться с богатырями и оказаться в Египте — стране фараонов и древних пирамид. А дальше — пирамиды, заклинание, Древний огонь — и дело в шляпе! Но не так-то просто осуществить своё коварное желание, когда на пути у тебя встают не только три богатыря, но и их жёны, Князь и Юлий, Змей Горыныч и Дед Мороз и даже — сама принцесса Нефертити!

Возраст: 6+ (зрителям, достигшим 6 лет)
Продолжительность: 01:11:46
Качество видео: BDRip
Субтитры: Отсутствуют
Видео: Xvid, 704x400 (16:9), ~1717 Kbps (0.254 bit/pixel)
Аудио: Dolby AC3, 48.0 kHz, 6 ch, 448 Kbps

Mediainfo:

Общее
Полное имя : Три богатыря и принцесса Египта (2017) BDRip.avi
Формат : AVI
Формат/Информация : Audio Video Interleave
Размер файла : 1,09 Гбайт
Продолжительность : 1 ч. 11 м.
Общий поток : 2174 Кбит/сек
Программа кодирования : VirtualDubMod 1.5.10.2 (build 2540/release)
Библиотека кодирования : VirtualDubMod build 2540/release
Видео
Идентификатор : 0
Формат : MPEG-4 Visual
Профиль формата : Advanced Simple@L5
Настройки формата : BVOP1 / Custom Matrix
Параметр BVOP формата : 1
Параметр QPel формата : Нет
Параметр GMC формата : Без точки перехода
Параметр матрицы формата : Выборочная
Идентификатор кодека : XVID
Идентификатор кодека/Подсказка : XviD
Продолжительность : 1 ч. 11 м.
Битрейт : 1717 Кбит/сек
Ширина : 704 пикселя
Высота : 400 пикселей
Соотношение сторон : 16:9
Частота кадров : 24,000 кадра/сек
Цветовое пространство : YUV
Субдискретизация насыщенности : 4:2:0
Битовая глубина : 8 бит
Тип развёртки : Прогрессивная
Метод сжатия : С потерями
Бит/(Пиксели*Кадры) : 0.254
Размер потока : 881 Мбайт (79%)
Библиотека кодирования : XviD 73
Аудио
Идентификатор : 1
Формат : AC-3
Формат/Информация : Audio Coding 3
Коммерческое название : Dolby Digital
Идентификатор кодека : 2000
Продолжительность : 1 ч. 11 м.
Вид битрейта : Постоянный
Битрейт : 448 Кбит/сек
Каналы : 6 каналов
Channel layout : L R C LFE Ls Rs
Частота : 48,0 КГц
Частота кадров : 31,250 кадров/сек (1536 SPF)
Битовая глубина : 16 бит
Метод сжатия : С потерями
Размер потока : 230 Мбайт (21%)
Выравнивание : Разделение по промежуткам
Продолжительность промежутка : 42 мс. (1,00 видеокадр)
Время предзагрузки промежутка : 500 мс.
ServiceKind/String : Complete Main
Скриншоты:
--


Показать сообщения:    

Текущее время: 19-Мар 09:02

Часовой пояс: UTC + 3


Вы не можете начинать темы
Вы не можете отвечать на сообщения
Вы не можете редактировать свои сообщения
Вы не можете удалять свои сообщения
Вы не можете голосовать в опросах
Вы не можете прикреплять файлы к сообщениям
Вы не можете скачивать файлы

!ВНИМАНИЕ!
Сайт не предоставляет электронные версии произведений, а занимается лишь коллекционированием и каталогизацией ссылок, присылаемых и публикуемых на форуме нашими читателями. Если вы являетесь правообладателем какого-либо представленного материала и не желаете, чтобы ссылка на него находилась в нашем каталоге, свяжитесь с нами, и мы незамедлительно удалим ее. Файлы для обмена на трекере предоставлены пользователями сайта, и администрация не несет ответственности за их содержание. Просьба не заливать файлы, защищенные авторскими правами, а также файлы нелегального содержания!