۩ ‼ Вы находитесь на Бесплатном торрент-трекере TORRNADA.com ۩ Зарегистрируйтесь для получения полного доступа ко всем функциям сайта ! ۩ После регистрации подпишитесь на нашу рассылку в своём профиле ۩
Auto Web Pinger

 

[Цитировать]

Остров / Yi chu hao xi / The Island (2018) BDRemux 1080р -- Информация о фильме
Название: Остров
Оригинальное название: Yi chu hao xi / The Island
Год выхода: 2018
Жанр: комедия, драма
Режиссер: Хуан Бо
В ролях: Хуан Бо , Шу Ци, Баоцян Ван, Исин Чжан, Хэвэй Юй, Ван Сюнь, Ли Циньцинь, Ли Юлунь, Тедди Чан, Гуань Ху
Описание: Мужчина средних лет на протяжении долгого времени покупал лотерейные билеты, пытаясь сорвать куш и подняться по социальной лестнице. Однажды его рабочий коллектив обычных офисных работников отправляется в небольшое морское путешествие, целью которого является еще большее сплочение дружной команды, другими словами — тимбилдинг. По дороге на мероприятие наш герой наконец-то покупает тот самый счастливый билет с крупным выигрышем. Но день продолжается не так прекрасно, как начался — на судно обрушивается гигантская волна, и выжившие оказываются на отдаленном острове. Никогда раньше для офисных работников тимбилдинг не значил больше, чем будет значить сейчас.

Страна: Китай
Продолжительность: 02:13:25
Перевод: профессиональный (многоголосый закадровый) HDRezka Studio
Субтитры: английские, китайские
Оригинальная аудиодорожка: китайский
Файл
Качество: BDRemux 1080р
Видео: MPEG-4 AVC, 1080p, 1920x1080 (16:9), 36504 kbps, 24.000 fps
Аудио 1: АС3, 2 ch, 48 kHz, 192 kbps HDRezka Studio
Аудио 2: Dolby TrueHD, 6 ch, 48 kHz, 2022 kbps Китайский
Аудио 3: AC3, 6 ch, 48 kHz, 640 kbps Китайский

Скриншоты

MedaiInfo

General
Unique ID : 72687797174880631663141641815587899519 (0x36AF2917A577FED1D3D40D57B7D1487F)
Complete name : The.Island.2018.REMUX.mkv
Format : Matroska
Format version : Version 4 / Version 2
File size : 36.8 GiB
Duration : 2 h 13 min
Overall bit rate mode : Variable
Overall bit rate : 39.4 Mb/s
Encoded date : UTC 2019-02-18 14:36:46
Writing application : mkvmerge v20.0.0 ('I Am The Sun') 64-bit
Writing library : libebml v1.3.5 + libmatroska v1.4.8
Video
ID : 1
Format : AVC
Format/Info : Advanced Video Codec
Format profile : High@L4.1
Format settings : CABAC / 4 Ref Frames
Format settings, CABAC : Yes
Format settings, RefFrames : 4 frames
Codec ID : V_MPEG4/ISO/AVC
Duration : 2 h 13 min
Bit rate mode : Variable
Bit rate : 36.5 Mb/s
Maximum bit rate : 38.0 Mb/s
Width : 1 920 pixels
Height : 1 080 pixels
Display aspect ratio : 16:9
Frame rate mode : Constant
Frame rate : 24.000 FPS
Color space : YUV
Chroma subsampling : 4:2:0
Bit depth : 8 bits
Scan type : Progressive
Bits/(Pixel*Frame) : 0.734
Stream size : 34.0 GiB (93%)
Language : English
Default : Yes
Forced : No
Audio #1
ID : 2
Format : AC-3
Format/Info : Audio Coding 3
Codec ID : A_AC3
Duration : 2 h 13 min
Bit rate mode : Constant
Bit rate : 192 kb/s
Channel(s) : 2 channels
Channel positions : Front: L R
Sampling rate : 48.0 kHz
Frame rate : 31.250 FPS (1536 SPF)
Bit depth : 16 bits
Compression mode : Lossy
Stream size : 183 MiB (0%)
Language : Russian
Service kind : Complete Main
Default : Yes
Forced : No
Audio #2
ID : 3
Format : TrueHD
Codec ID : A_TRUEHD
Duration : 2 h 13 min
Bit rate mode : Variable
Bit rate : 2 022 kb/s
Maximum bit rate : 3 396 kb/s
Channel(s) : 6 channels
Channel positions : Front: L C R, Side: L R, LFE
Sampling rate : 96.0 kHz
Frame rate : 2 400.000 FPS (40 SPF)
Compression mode : Lossless
Stream size : 1.88 GiB (5%)
Language : Chinese
Default : No
Forced : No
Audio #3
ID : 4
Format : AC-3
Format/Info : Audio Coding 3
Codec ID : A_AC3
Duration : 2 h 13 min
Bit rate mode : Constant
Bit rate : 640 kb/s
Channel(s) : 6 channels
Channel positions : Front: L C R, Side: L R, LFE
Sampling rate : 48.0 kHz
Frame rate : 31.250 FPS (1536 SPF)
Bit depth : 16 bits
Compression mode : Lossy
Stream size : 611 MiB (2%)
Language : Chinese
Service kind : Complete Main
Default : No
Forced : No
Text #1
ID : 5
Format : UTF-8
Codec ID : S_TEXT/UTF8
Codec ID/Info : UTF-8 Plain Text
Duration : 2 h 12 min
Bit rate : 44 b/s
Count of elements : 2065
Stream size : 42.9 KiB (0%)
Language : English
Default : No
Forced : No
Text #2
ID : 6
Format : PGS
Muxing mode : zlib
Codec ID : S_HDMV/PGS
Codec ID/Info : Picture based subtitle format used on BDs/HD-DVDs
Duration : 2 h 12 min
Bit rate : 31.3 kb/s
Count of elements : 3235
Stream size : 29.6 MiB (0%)
Language : Chinese
Default : No
Forced : No
Menu
00:00:00.000 : en:Chapter 1
00:05:01.833 : en:Chapter 2
00:10:58.416 : en:Chapter 3
00:14:50.000 : en:Chapter 4
00:19:38.458 : en:Chapter 5
00:26:09.333 : en:Chapter 6
00:31:48.958 : en:Chapter 7
00:40:48.000 : en:Chapter 8
00:46:23.875 : en:Chapter 9
00:53:32.541 : en:Chapter 10
00:59:41.500 : en:Chapter 11
01:06:14.666 : en:Chapter 12
01:13:00.541 : en:Chapter 13
01:20:38.125 : en:Chapter 14
01:30:26.333 : en:Chapter 15
01:39:10.291 : en:Chapter 16
01:46:19.958 : en:Chapter 17
01:54:49.666 : en:Chapter 18
02:02:35.625 : en:Chapter 19
02:07:13.833 : en:Chapter 20


Показать сообщения:    

Текущее время: 22-Мар 08:51

Часовой пояс: UTC + 3


Вы не можете начинать темы
Вы не можете отвечать на сообщения
Вы не можете редактировать свои сообщения
Вы не можете удалять свои сообщения
Вы не можете голосовать в опросах
Вы не можете прикреплять файлы к сообщениям
Вы не можете скачивать файлы

!ВНИМАНИЕ!
Сайт не предоставляет электронные версии произведений, а занимается лишь коллекционированием и каталогизацией ссылок, присылаемых и публикуемых на форуме нашими читателями. Если вы являетесь правообладателем какого-либо представленного материала и не желаете, чтобы ссылка на него находилась в нашем каталоге, свяжитесь с нами, и мы незамедлительно удалим ее. Файлы для обмена на трекере предоставлены пользователями сайта, и администрация не несет ответственности за их содержание. Просьба не заливать файлы, защищенные авторскими правами, а также файлы нелегального содержания!