۩ ‼ Вы находитесь на Бесплатном торрент-трекере TORRNADA.com ۩ Зарегистрируйтесь для получения полного доступа ко всем функциям сайта ! ۩ После регистрации подпишитесь на нашу рассылку в своём профиле ۩
Auto Web Pinger

 

[Цитировать]

Крепостная -Страна: Украина
Студия: StarLight Films, Film.ua
Год выхода: 2019
Жанр: мелодрама
Режиссёр: Феликс Герчиков, Максим Литвинов-Актёры:
Катерина Ковальчук, Алексей Яровенко, Станислав Боклан, Ольга Сумская, Марк Дробот, Олеся Жураковская, Михаил Гаврилов, Ксения Мишина, Виктор Бабак, Дарья Легейда-О фильме:
Юная сирота Катерина Вербицкая — очень красивая, умная и образованная девушка. Благодаря ее крестной матери Катю воспитали как барышню благородных кровей. Она знает иностранные языки, играет на фортепиано, рисует и прекрасно понимает, что все это никак не облегчит судьбу рожденной в неволе. Катерина принадлежит самым богатым помещикам в Нежине — Червинским. Девушка существует между двумя мирами — миром крепостных и дворян. И ни в одном из них для нее нет места. В борьбе за свою свободу и право быть счастливой ей придется пережить смерти самых близких людей, стать собственностью женщины, которая ее ненавидит и мечтает убить, выжить во время народного восстания, спастись от преследований маньяка в пугающем мире киевских борделей и снова, и снова бежать от того, кто хочет заполучить ее больше всего на свете. Что ждет Катерину в конце такого страшного и изнурительного пути к свободе?-Продолжительность: ~ 00:50:44
Язык: Русский
Качество: WEBRip-AVC
Формат: mkv
Кодек: h.264
Видео: MPEG-4 AVC, ~ 1600 Кбит/с, 1024x576, 25 кадр/с
Аудио: AC3, 2 ch, 192 Кбит/с-

MI

General
Unique ID : 217365832701974074715345588379560246054 (0xA38722F8CA55D98BA142FBC78EBCFB26)
Complete name : \\DLINK-E826FB\Volume_2\НОВОЕ СКАЧАННОЕ\Крепостная.(2019).WEBRip.(AVC).Files-x\01.Крепостная.(2019).WEBRip.(AVC).by.Серый1779.Files-x.mkv
Format : Matroska
Format version : Version 2
File size : 647 MiB
Duration : 50mn 44s
Overall bit rate : 1 784 Kbps
Encoded date : UTC 2019-02-26 14:28:02
Writing application : mkvmerge v7.8.0 ('River Man') 32bit built on Apr 3 2015 12:11:22
Writing library : libebml v1.3.1 + libmatroska v1.4.2
Video
ID : 1
Format : AVC
Format/Info : Advanced Video Codec
Format profile : High@L4.1
Format settings, CABAC : Yes
Format settings, ReFrames : 9 frames
Codec ID : V_MPEG4/ISO/AVC
Duration : 50mn 44s
Bit rate : 1 600 Kbps
Width : 1 024 pixels
Height : 576 pixels
Display aspect ratio : 16:9
Frame rate mode : Constant
Frame rate : 25.000 fps
Color space : YUV
Chroma subsampling : 4:2:0
Bit depth : 8 bits
Scan type : Progressive
Bits/(Pixel*Frame) : 0.109
Stream size : 565 MiB (87%)
Writing library : x264 core 146 r2538 121396c
Encoding settings : cabac=1 / ref=9 / deblock=1:-2:-1 / analyse=0x3:0x133 / me=umh / subme=9 / psy=1 / psy_rd=1.00:0.15 / mixed_ref=1 / me_range=32 / chroma_me=1 / trellis=2 / 8x8dct=1 / cqm=0 / deadzone=21,11 / fast_pskip=0 / chroma_qp_offset=-3 / threads=18 / lookahead_threads=3 / sliced_threads=0 / nr=0 / decimate=1 / interlaced=0 / bluray_compat=0 / constrained_intra=0 / bframes=9 / b_pyramid=2 / b_adapt=2 / b_bias=0 / direct=1 / weightb=1 / open_gop=0 / weightp=2 / keyint=250 / keyint_min=25 / scenecut=40 / intra_refresh=0 / rc=2pass / mbtree=0 / bitrate=1600 / ratetol=1.0 / qcomp=0.60 / qpmin=0 / qpmax=69 / qpstep=4 / cplxblur=20.0 / qblur=0.5 / ip_ratio=1.40 / pb_ratio=1.30 / aq=2:1.00
Default : Yes
Forced : No
Color primaries : BT.709
Transfer characteristics : BT.709
Matrix coefficients : BT.709
Audio
ID : 2
Format : AC-3
Format/Info : Audio Coding 3
Mode extension : CM (complete main)
Format settings, Endianness : Big
Codec ID : A_AC3
Duration : 50mn 44s
Bit rate mode : Constant
Bit rate : 192 Kbps
Channel(s) : 2 channels
Channel positions : Front: L R
Sampling rate : 48.0 KHz
Bit depth : 16 bits
Compression mode : Lossy
Stream size : 69.7 MiB (11%)
Default : Yes
Forced : No
-


Показать сообщения:    

Текущее время: 25-Мар 12:29

Часовой пояс: UTC + 3


Вы не можете начинать темы
Вы не можете отвечать на сообщения
Вы не можете редактировать свои сообщения
Вы не можете удалять свои сообщения
Вы не можете голосовать в опросах
Вы не можете прикреплять файлы к сообщениям
Вы не можете скачивать файлы

!ВНИМАНИЕ!
Сайт не предоставляет электронные версии произведений, а занимается лишь коллекционированием и каталогизацией ссылок, присылаемых и публикуемых на форуме нашими читателями. Если вы являетесь правообладателем какого-либо представленного материала и не желаете, чтобы ссылка на него находилась в нашем каталоге, свяжитесь с нами, и мы незамедлительно удалим ее. Файлы для обмена на трекере предоставлены пользователями сайта, и администрация не несет ответственности за их содержание. Просьба не заливать файлы, защищенные авторскими правами, а также файлы нелегального содержания!