۩ ‼ Вы находитесь на Бесплатном торрент-трекере TORRNADA.com ۩ Зарегистрируйтесь для получения полного доступа ко всем функциям сайта ! ۩ После регистрации подпишитесь на нашу рассылку в своём профиле ۩
Auto Web Pinger

 

[Цитировать]

-Revolution Highway - Revolution Highway--
Год издания: 2018
Страна: International
Жанр: Hard Rock
Продолжительность: 00:53:09-Лейбл издания: Grooveyard Records
Страна-выпуска диска: USA
Номер по каталогу: GYR173-Формат: FLAC
Битрейт аудио: Lossless
Тип рипа: image +.cue
Наличие сканов в содержимом раздачи: да
-

Трэклист


01. Renegade (4:03)
02. Young And Wild (3:42)
03. Into The Darkness (5:06)
04. The Streets Of Hollywood (4:06)
05. Rollin' Train (4:50)
06. Sister Of The Devil (6:16)
07. I Need Your Love (4:37)
08. All The Way Down (3:44)
09. Know Mercy, Know Love (5:19)
10. Losing You Again (4:00)
11. Revolution Highway (7:25)
-

Лог создания рипа

Exact Audio Copy V1.3 from 2. September 2016
Отчёт EAC об извлечении, выполненном 8. декабря 2018, 11:15
Revolution Highway / Revolution Highway
Дисковод: HL-DT-STDVDRAM GU40N   Adapter: 0  ID: 1
Режим чтения                 : Достоверность
Использование точного потока : Да
Отключение кэша аудио        : Да
Использование указателей C2  : Нет
Коррекция смещения при чтении                     : 103
Способность читать области Lead-in и Lead-out     : Нет
Заполнение пропущенных сэмплов тишиной            : Да
Удаление блоков с тишиной в начале и конце        : Нет
При вычислениях CRC использовались нулевые сэмплы : Да
Интерфейс                                         : Установленный внешний ASPI-интерфейс
Выходной формат          : Пользовательский кодировщик
Выбранный битрейт        : 1024 kBit/s
Качество                 : Высокий
Добавление ID3-тега      : Нет
Утилита сжатия           : C:\Program Files (x86)\Exact Audio Copy\Flac\flac.exe
Дополнительные параметры :  -V -8 -T "Date=%year%" -T "Genre=%genre%" %source%
TOC извлечённого CD
     Трек |   Старт  | Длительность | Начальный сектор | Конечный сектор
    ---------------------------------------------------------------------
       1  |  0:00.00 |    4:03.13   |           0      |      18237
       2  |  4:03.13 |    3:42.29   |       18238      |      34916
       3  |  7:45.42 |    5:06.30   |       34917      |      57896
       4  | 12:51.72 |    4:06.12   |       57897      |      76358
       5  | 16:58.09 |    4:50.01   |       76359      |      98109
       6  | 21:48.10 |    6:15.50   |       98110      |     126284
       7  | 28:03.60 |    4:37.02   |      126285      |     147061
       8  | 32:40.62 |    3:44.28   |      147062      |     163889
       9  | 36:25.15 |    5:19.37   |      163890      |     187851
      10  | 41:44.52 |    3:59.52   |      187852      |     205828
      11  | 45:44.29 |    7:24.42   |      205829      |     239170
Характеристики диапазона извлечения и сообщения об ошибках
Выбранный диапазон
     Имя файла C:\Users\Desktop\REVOLUTION HIGHWAY - REVOLUTION HIGHWAY 2018\Revolution Highway - Revolution Highway.wav
     Пиковый уровень 99.0 %
     Скорость извлечения 2.0 X
     Качество диапазона 100.0 %
     CRC теста 9241AEB5
     CRC копии 9241AEB5
     Копирование... OK
Ошибок не произошло
AccurateRip: сводка
Трек  1  отсутствует в базе данных
Трек  2  отсутствует в базе данных
Трек  3  отсутствует в базе данных
Трек  4  отсутствует в базе данных
Трек  5  отсутствует в базе данных
Трек  6  отсутствует в базе данных
Трек  7  отсутствует в базе данных
Трек  8  отсутствует в базе данных
Трек  9  отсутствует в базе данных
Трек 10  отсутствует в базе данных
Трек 11  отсутствует в базе данных
Ни одного трека нет в базе AccurateRip
Конец отчёта

Индексная карта (non-compilant .cue)

REM GENRE "Hard Rock"
REM DATE 2018
REM DISCID 8F0C740B
REM COMMENT "ExactAudioCopy v1.3"
PERFORMER "Revolution Highway"
TITLE "Revolution Highway"
REM COMPOSER ""
FILE "Revolution Highway - Revolution Highway.flac" WAVE
  TRACK 01 AUDIO
    TITLE "Renegade "
    PERFORMER "Revolution Highway"
    REM COMPOSER ""
    INDEX 01 00:00:00
  TRACK 02 AUDIO
    TITLE "Young And Wild"
    PERFORMER "Revolution Highway"
    REM COMPOSER ""
    INDEX 01 04:03:13
  TRACK 03 AUDIO
    TITLE "Into The Darkness"
    PERFORMER "Revolution Highway"
    REM COMPOSER ""
    INDEX 01 07:45:42
  TRACK 04 AUDIO
    TITLE "The Streets Of Hollywood"
    PERFORMER "Revolution Highway"
    REM COMPOSER ""
    INDEX 01 12:51:72
  TRACK 05 AUDIO
    TITLE "Rollin' Train"
    PERFORMER "Revolution Highway"
    REM COMPOSER ""
    INDEX 01 16:58:09
  TRACK 06 AUDIO
    TITLE "Sister Of The Devil "
    PERFORMER "Revolution Highway"
    REM COMPOSER ""
    INDEX 01 21:48:10
  TRACK 07 AUDIO
    TITLE "I Need Your Love"
    PERFORMER "Revolution Highway"
    REM COMPOSER ""
    INDEX 01 28:03:60
  TRACK 08 AUDIO
    TITLE "All The Way Down"
    PERFORMER "Revolution Highway"
    REM COMPOSER ""
    INDEX 01 32:40:62
  TRACK 09 AUDIO
    TITLE "Know Mercy, Know Love"
    PERFORMER "Revolution Highway"
    REM COMPOSER ""
    INDEX 01 36:25:15
  TRACK 10 AUDIO
    TITLE "Losing You Again"
    PERFORMER "Revolution Highway"
    REM COMPOSER ""
    INDEX 01 41:44:52
  TRACK 11 AUDIO
    TITLE "Revolution Highway"
    PERFORMER "Revolution Highway"
    REM COMPOSER ""
    INDEX 01 45:44:29
-

для ознакомления:

http://www.youtube.com/watch?v=_tYCJ_knEuM
--


Показать сообщения:    

Текущее время: 26-Мар 03:19

Часовой пояс: UTC + 3


Вы не можете начинать темы
Вы не можете отвечать на сообщения
Вы не можете редактировать свои сообщения
Вы не можете удалять свои сообщения
Вы не можете голосовать в опросах
Вы не можете прикреплять файлы к сообщениям
Вы не можете скачивать файлы

!ВНИМАНИЕ!
Сайт не предоставляет электронные версии произведений, а занимается лишь коллекционированием и каталогизацией ссылок, присылаемых и публикуемых на форуме нашими читателями. Если вы являетесь правообладателем какого-либо представленного материала и не желаете, чтобы ссылка на него находилась в нашем каталоге, свяжитесь с нами, и мы незамедлительно удалим ее. Файлы для обмена на трекере предоставлены пользователями сайта, и администрация не несет ответственности за их содержание. Просьба не заливать файлы, защищенные авторскими правами, а также файлы нелегального содержания!